[NSBC] Tokyo Love Story 2020 E11 END [WEBDL] [1080p]

Category:
Date:
2020-06-03 05:14 UTC
Submitter:
Seeders:
0
Information:
TlNCQy50bw==
Leechers:
2
File size:
1.1 GiB
Completed:
425
Info hash:
2d6c3c533b625792178f628055c9f3aea92858dd
> ### Subtitle: English & Indonesia > ### Also available at [Subscene](https://subscene.com/subtitles/tokyo-love-story-2020) ![](https://img.topddl.net/images/2020/05/13/tls2020.jpg "") ![](https://img.topddl.net/images/2020/06/03/Tokyo-Love-Story-2020-S01E11-1080p-WEB-DL-AAC-H.264-NSBC.mkv.jpg "") ``` General Unique ID : 174127889180411197100357093473350344974 (0x82FFCFC48782410D89EC63B3CDD8610E) Complete name : Tokyo Love Story 2020 S01E11 1080p WEB-DL AAC H.264-NSBC.mkv Format : Matroska Format version : Version 4 File size : 1.13 GiB Duration : 1 h 1 min Overall bit rate mode : Variable Overall bit rate : 2 642 kb/s Movie name : Tokyo Love Story 2020 S01E11 1080p WEB-DL AAC H.264-NSBC Encoded by : NoNe | NSBC Encoded date : UTC 2020-06-02 22:10:47 Writing application : mkvmerge v29.0.0 ('Like It Or Not') 64-bit Writing library : libebml v1.3.6 + libmatroska v1.4.9 Copyright : NSBC Comment : NoNe | NSBC DATE_RECORDED : 2020 NOTICE ME : SENPAI WEBSITE : NSBC.to Video ID : 1 Format : AVC Format/Info : Advanced Video Codec Format profile : High@L4.1 Format settings : CABAC / 4 Ref Frames Format settings, CABAC : Yes Format settings, Reference frames : 4 frames Codec ID : V_MPEG4/ISO/AVC Duration : 1 h 1 min Bit rate mode : Variable Bit rate : 2 544 kb/s Maximum bit rate : 4 500 kb/s Width : 1 920 pixels Height : 1 080 pixels Display aspect ratio : 16:9 Frame rate mode : Constant Frame rate : 29.970 (30000/1001) FPS Original frame rate : 29.970 (29970/1000) FPS Color space : YUV Chroma subsampling : 4:2:0 Bit depth : 8 bits Scan type : Progressive Bits/(Pixel*Frame) : 0.041 Stream size : 1.08 GiB (96%) Title : [NSBC] Writing library : VOLO1.4.1 Default : Yes Forced : No Audio ID : 2 Format : AAC LC Format/Info : Advanced Audio Codec Low Complexity Codec ID : A_AAC-2 Duration : 1 h 1 min Bit rate : 96.0 kb/s Channel(s) : 2 channels Channel layout : L R Sampling rate : 44.1 kHz Frame rate : 43.066 FPS (1024 SPF) Compression mode : Lossy Delay relative to video : -46 ms Stream size : 41.9 MiB (4%) Title : [NSBC] Language : Japanese Default : Yes Forced : No Text #1 ID : 3 Format : UTF-8 Codec ID : S_TEXT/UTF8 Codec ID/Info : UTF-8 Plain Text Duration : 1 h 0 min Bit rate : 25 b/s Count of elements : 500 Stream size : 11.4 KiB (0%) Title : [NSBC] Language : English Default : No Forced : No Text #2 ID : 4 Format : UTF-8 Codec ID : S_TEXT/UTF8 Codec ID/Info : UTF-8 Plain Text Duration : 1 h 0 min Bit rate : 26 b/s Count of elements : 500 Stream size : 11.8 KiB (0%) Title : [NSBC] Language : Indonesian Default : Yes Forced : No ```

File list

  • Tokyo Love Story 2020 S01E11 1080p WEB-DL AAC H.264-NSBC.mkv (1.1 GiB)
Can anyone pls help me seeding this file, I need to download it :(