Naruto.001-026.1080p.BluRay.x264-AMB3R (Dual Audio French/Japanese)

Category:
Date:
2020-05-30 17:06 UTC
Submitter:
Seeders:
1
Information:
No information.
Leechers:
1
File size:
38.6 GiB
Completed:
45
Info hash:
11f9611572c5a501b1787858be6338039ac422a1
Naruto Episode 001-026 Encode from amb3r (Scene group?) Dual audio French/Japanese with French subtitles. If only the BD's was uncropped :-( Mediainfo: ``` General Unique ID : 33195656122061114656786046071145297938 (0x18F9403567DA2D113BD99ACEB034F812) Complete name : naruto.e026.multi.1080p.bluray.x264-amb3r.mkv Format : Matroska Format version : Version 4 File size : 1.45 GiB Duration : 22 min 37 s Overall bit rate : 9 206 kb/s Encoded date : UTC 2019-10-27 19:48:17 Writing application : mkvmerge v38.0.0 ('The Silent Type') 64-bit Writing library : libebml v1.3.9 + libmatroska v1.5.2 Video ID : 1 Format : AVC Format/Info : Advanced Video Codec Format profile : High@L4.1 Format settings : CABAC / 4 Ref Frames Format settings, CABAC : Yes Format settings, Reference frames : 4 frames Codec ID : V_MPEG4/ISO/AVC Duration : 22 min 37 s Bit rate : 7 667 kb/s Width : 1 920 pixels Height : 1 080 pixels Display aspect ratio : 16:9 Frame rate mode : Constant Frame rate : 23.976 (24000/1001) FPS Color space : YUV Chroma subsampling : 4:2:0 Bit depth : 8 bits Scan type : Progressive Bits/(Pixel*Frame) : 0.154 Stream size : 1.21 GiB (83%) Writing library : x264 core 158 r2984 3759fcb Encoding settings : cabac=1 / ref=4 / deblock=1:1:1 / analyse=0x3:0x113 / me=esa / subme=9 / psy=1 / psy_rd=0.40:0.00 / mixed_ref=1 / me_range=16 / chroma_me=1 / trellis=2 / 8x8dct=1 / cqm=0 / deadzone=21,11 / fast_pskip=1 / chroma_qp_offset=-6 / threads=6 / lookahead_threads=1 / sliced_threads=0 / nr=0 / decimate=1 / interlaced=0 / bluray_compat=0 / constrained_intra=0 / bframes=3 / b_pyramid=2 / b_adapt=2 / b_bias=0 / direct=3 / weightb=1 / open_gop=0 / weightp=2 / keyint=240 / keyint_min=23 / scenecut=40 / intra_refresh=0 / rc_lookahead=50 / rc=2pass / mbtree=1 / bitrate=7667 / ratetol=1.0 / qcomp=0.60 / qpmin=10 / qpmax=64 / qpstep=4 / cplxblur=20.0 / qblur=0.5 / ip_ratio=1.40 / aq=1:1.00 Default : Yes Forced : No Audio #1 ID : 2 Format : DTS Format/Info : Digital Theater Systems Codec ID : A_DTS Duration : 22 min 37 s Bit rate mode : Constant Bit rate : 768 kb/s Channel(s) : 2 channels Channel layout : L R Sampling rate : 48.0 kHz Frame rate : 93.750 FPS (512 SPF) Bit depth : 16 bits Compression mode : Lossy Stream size : 124 MiB (8%) Title : French Language : French Default : Yes Forced : No Audio #2 ID : 3 Format : DTS Format/Info : Digital Theater Systems Codec ID : A_DTS Duration : 22 min 37 s Bit rate mode : Constant Bit rate : 768 kb/s Channel(s) : 2 channels Channel layout : L R Sampling rate : 48.0 kHz Frame rate : 93.750 FPS (512 SPF) Bit depth : 16 bits Compression mode : Lossy Stream size : 124 MiB (8%) Title : Japanese Language : Japanese Default : No Forced : No Text #1 ID : 4 Format : UTF-8 Codec ID : S_TEXT/UTF8 Codec ID/Info : UTF-8 Plain Text Duration : 19 min 27 s Bit rate : 1 b/s Count of elements : 13 Stream size : 290 Bytes (0%) Title : French (Forced) Language : French Default : Yes Forced : Yes Text #2 ID : 5 Format : UTF-8 Codec ID : S_TEXT/UTF8 Codec ID/Info : UTF-8 Plain Text Duration : 19 min 30 s Bit rate : 75 b/s Count of elements : 301 Stream size : 10.8 KiB (0%) Title : French Language : French Default : No Forced : No ```

File list

  • Naruto.001-026.1080p.BluRay.x264-AMB3R
    • naruto.e001.rerip.multi.1080p.bluray.x264-amb3r.mkv (2.2 GiB)
    • naruto.e002.multi.1080p.bluray.x264-amb3r.mkv (1.5 GiB)
    • naruto.e003.multi.1080p.bluray.x264-amb3r.mkv (1.5 GiB)
    • naruto.e004.multi.1080p.bluray.x264-amb3r.mkv (1.5 GiB)
    • naruto.e005.multi.1080p.bluray.x264-amb3r.mkv (1.5 GiB)
    • naruto.e006.multi.1080p.bluray.x264-amb3r.mkv (1.5 GiB)
    • naruto.e007.rerip.multi.1080p.bluray.x264-amb3r.mkv (1.5 GiB)
    • naruto.e008.multi.1080p.bluray.x264-amb3r.mkv (1.5 GiB)
    • naruto.e009.multi.1080p.bluray.x264-amb3r.mkv (1.5 GiB)
    • naruto.e010.multi.1080p.bluray.x264-amb3r.mkv (1.5 GiB)
    • naruto.e011.multi.1080p.bluray.x264-amb3r.mkv (1.5 GiB)
    • naruto.e012.multi.1080p.bluray.x264-amb3r.mkv (1.5 GiB)
    • naruto.e013.rerip.multi.1080p.bluray.x264-amb3r.mkv (1.5 GiB)
    • naruto.e014.multi.1080p.bluray.x264-amb3r.mkv (1.5 GiB)
    • naruto.e015.multi.1080p.bluray.x264-amb3r.mkv (1.5 GiB)
    • naruto.e016.multi.1080p.bluray.x264-amb3r.mkv (1.5 GiB)
    • naruto.e017.multi.1080p.bluray.x264-amb3r.mkv (1.5 GiB)
    • naruto.e018.multi.1080p.bluray.x264-amb3r.mkv (1.5 GiB)
    • naruto.e019.multi.1080p.bluray.x264-amb3r.mkv (1.5 GiB)
    • naruto.e020.multi.1080p.bluray.x264-amb3r.mkv (1.5 GiB)
    • naruto.e021.multi.1080p.bluray.x264-amb3r.mkv (1.5 GiB)
    • naruto.e022.multi.1080p.bluray.x264-amb3r.mkv (1.5 GiB)
    • naruto.e023.multi.1080p.bluray.x264-amb3r.mkv (1.5 GiB)
    • naruto.e024.multi.1080p.bluray.x264-amb3r.mkv (1.5 GiB)
    • naruto.e025.multi.1080p.bluray.x264-amb3r.mkv (1.5 GiB)
    • naruto.e026.multi.1080p.bluray.x264-amb3r.mkv (1.5 GiB)
Merci beaucoup c'est vraiment stylé beau travail !! Peut on espérer voir la suite arriver un jour ?^^

yellow-flash (uploader)

User
Yuris: I don't speak French even though I uploaded a French release... Could you translate it to English so I don't have to miss translate it with Google Translate?
@yellow-flash Lol sorry I don't know that^^ I tell you good job for this release and can we hope see the complete serie one day on nyaa ?
when do you want to release the next batch ??

yellow-flash (uploader)

User
Unfortunately I was only able to find episode 001-026, but according to AniDB AMB3R ripped the entire series: https://anidb.net/group/15183/anime/239/release Maybe someone with topsite ftp access can get the rest of the files and share them.
@Yellow-flash, i can give u ddl's if u want to share them yourself.
Hey, I notice u been release alot of great raw, any chance u can do all 220 episodes of naruto with the previews include and stuff?
@SceneDeity could you share the naruto dll over here? I'm also interested, greetings