Infinite.Stratos.S01.1080p.BluRay.10-Bit.Dual-Audio.FLAC2.0.x265-YURASUKA

Category:
Date:
2020-05-30 00:01 UTC
Submitter:
Seeders:
9
Information:
Leechers:
4
File size:
9.7 GiB
Completed:
331
Info hash:
d2b285e33fb363633f668104bcaae1cab9977fde
Infinite Stratos (2011) Somehow there isn't a single x265/HEVC release of Infinite Stratos, so I made one. All episodes encoded at CRF 16. Video Source: Anti-Raws BD Remux Audio+Subtitles Source: [CTR](https://nyaa.si/view/1120874) ``` Complete name : Infinite.Stratos.S01E04.1080p.BluRay.10-Bit.Dual-Audio.FLAC2.0.x265-YURASUKA.mkv Format : Matroska Format version : Version 4 File size : 927 MiB Duration : 24 min 12 s Overall bit rate mode : Variable Overall bit rate : 5 355 kb/s Movie name : Infinite Stratos S01E04 YURASUKA Encoded date : UTC 2020-05-29 22:33:01 Writing application : mkvmerge v46.0.0 ('No Deeper Escape') 64-bit Writing library : libebml v1.3.10 + libmatroska v1.5.2 Attachments : StoneSansStd-Semibold.otf / StoneSansStd-SemiboldItalic.otf / A-OTF-Jun501Pro-Bold.otf / Bakuman Shinn Medium.ttf / Clannad_Regular_0.ttf / EleganTech-.ttf / GiddyupStd.otf / Mentone_Bold.otf / segoeui.ttf / AdobeHeitiStd-Regular.otf / ARLRDBD.TTF / Clannad_Regular.ttf Video ID : 1 Format : HEVC Format/Info : High Efficiency Video Coding Format profile : Main 10@L5@High Codec ID : V_MPEGH/ISO/HEVC Duration : 24 min 10 s Bit rate : 3 716 kb/s Width : 1 920 pixels Height : 1 080 pixels Display aspect ratio : 16:9 Frame rate mode : Constant Frame rate : 23.976 (24000/1001) FPS Color space : YUV Chroma subsampling : 4:2:0 Bit depth : 10 bits Bits/(Pixel*Frame) : 0.075 Stream size : 643 MiB (69%) Writing library : x265 3.2.1+1-b5c86a64bbbe:[Linux][GCC 9.3.0][64 bit] 10bit Encoding settings : cpuid=1111039 / frame-threads=4 / wpp / no-pmode / no-pme / no-psnr / no-ssim / log-level=2 / input-csp=1 / input-res=1920x1080 / interlace=0 / total-frames=0 / level-idc=50 / high-tier=1 / uhd-bd=0 / ref=6 / no-allow-non-conformance / no-repeat-headers / annexb / no-aud / no-hrd / info / hash=0 / no-temporal-layers / open-gop / min-keyint=24 / keyint=240 / gop-lookahead=0 / bframes=16 / b-adapt=2 / b-pyramid / bframe-bias=0 / rc-lookahead=50 / lookahead-slices=4 / scenecut=40 / radl=0 / no-splice / no-intra-refresh / ctu=64 / min-cu-size=8 / rect / no-amp / max-tu-size=32 / tu-inter-depth=1 / tu-intra-depth=1 / limit-tu=0 / rdoq-level=2 / dynamic-rd=0.00 / no-ssim-rd / signhide / no-tskip / nr-intra=0 / nr-inter=0 / no-constrained-intra / strong-intra-smoothing / max-merge=3 / limit-refs=3 / limit-modes / me=3 / subme=3 / merange=57 / temporal-mvp / no-hme / weightp / no-weightb / no-analyze-src-pics / deblock=1:1 / sao / no-sao-non-deblock / rd=4 / selective-sao=4 / no-early-skip / rskip / no-fast-intra / no-tskip-fast / no-cu-lossless / no-b-intra / no-splitrd-skip / rdpenalty=0 / psy-rd=0.40 / psy-rdoq=1.00 / no-rd-refine / no-lossless / cbqpoffs=0 / crqpoffs=0 / rc=crf / crf=16.0 / qcomp=0.60 / qpstep=4 / stats-write=0 / stats-read=0 / vbv-maxrate=100000 / vbv-bufsize=100000 / vbv-init=0.9 / crf-max=0.0 / crf-min=0.0 / ipratio=1.40 / pbratio=1.30 / aq-mode=2 / aq-strength=0.80 / cutree / zone-count=0 / no-strict-cbr / qg-size=32 / no-rc-grain / qpmax=69 / qpmin=0 / no-const-vbv / sar=1 / overscan=0 / videoformat=5 / range=0 / colorprim=1 / transfer=1 / colormatrix=1 / chromaloc=0 / display-window=0 / cll=0,0 / min-luma=0 / max-luma=1023 / log2-max-poc-lsb=8 / vui-timing-info / vui-hrd-info / slices=1 / no-opt-qp-pps / no-opt-ref-list-length-pps / no-multi-pass-opt-rps / scenecut-bias=0.05 / no-opt-cu-delta-qp / no-aq-motion / no-hdr / no-hdr-opt / no-dhdr10-opt / no-idr-recovery-sei / analysis-reuse-level=5 / scale-factor=0 / refine-intra=0 / refine-inter=0 / refine-mv=1 / refine-ctu-distortion=0 / no-limit-sao / ctu-info=0 / no-lowpass-dct / refine-analysis-type=0 / copy-pic=1 / max-ausize-factor=1.0 / no-dynamic-refine / no-single-sei / no-hevc-aq / no-svt / no-field / qp-adaptation-range=1.00 Language : Japanese Default : Yes Forced : No Color range : Limited Color primaries : BT.709 Transfer characteristics : BT.709 Matrix coefficients : BT.709 Audio #1 ID : 2 Format : FLAC Format/Info : Free Lossless Audio Codec Codec ID : A_FLAC Duration : 24 min 11 s Bit rate mode : Variable Bit rate : 763 kb/s Channel(s) : 2 channels Channel layout : L R Sampling rate : 48.0 kHz Frame rate : 11.719 FPS (4096 SPF) Bit depth : 16 bits Compression mode : Lossless Delay relative to video : 24 ms Stream size : 132 MiB (14%) Title : FLAC 2.0 [philosophy] Writing library : libFLAC 1.2.1 (UTC 2007-09-17) Language : English Default : Yes Forced : No Audio #2 ID : 3 Format : FLAC Format/Info : Free Lossless Audio Codec Codec ID : A_FLAC Duration : 24 min 10 s Bit rate mode : Variable Bit rate : 778 kb/s Channel(s) : 2 channels Sampling rate : 48.0 kHz Frame rate : 11.719 FPS (4096 SPF) Bit depth : 16 bits Compression mode : Lossless Stream size : 135 MiB (15%) Title : FLAC 2.0 [ANE] Writing library : libFLAC 1.2.1 (UTC 2007-09-17) Language : Japanese Default : No Forced : No Text #1 ID : 4 Format : ASS Codec ID : S_TEXT/ASS Codec ID/Info : Advanced Sub Station Alpha Duration : 23 min 39 s Bit rate : 46 b/s Count of elements : 71 Compression mode : Lossless Stream size : 8.09 KiB (0%) Title : Signs [ANE] Language : English Default : Yes Forced : Yes Text #2 ID : 5 Format : ASS Codec ID : S_TEXT/ASS Codec ID/Info : Advanced Sub Station Alpha Duration : 24 min 8 s Bit rate : 152 b/s Count of elements : 367 Compression mode : Lossless Stream size : 26.9 KiB (0%) Title : Subtitles [ANE] Language : Japanese Default : No Forced : No Text #3 ID : 6 Format : ASS Codec ID : S_TEXT/ASS Codec ID/Info : Advanced Sub Station Alpha Duration : 24 min 8 s Bit rate : 166 b/s Count of elements : 391 Compression mode : Lossless Stream size : 29.4 KiB (0%) Title : Subtitles [Elysium] Language : Japanese Default : No Forced : No Menu 00:00:00.000 : en:Prologue 00:00:15.015 : en:Opening 00:01:44.854 : en:Part A 00:10:00.808 : en:Part B 00:22:09.828 : en:Ending 00:23:39.835 : en:Preview ``` Deadend for a sucker that’s a sucker like me.

File list

  • Infinite.Stratos.S01.1080p.BluRay.10-Bit.Dual-Audio.FLAC2.0.x265-YURASUKA
    • Infinite.Stratos.S01E01.1080p.BluRay.10-Bit.Dual-Audio.FLAC2.0.x265-YURASUKA.mkv (795.6 MiB)
    • Infinite.Stratos.S01E02.1080p.BluRay.10-Bit.Dual-Audio.FLAC2.0.x265-YURASUKA.mkv (886.0 MiB)
    • Infinite.Stratos.S01E03.1080p.BluRay.10-Bit.Dual-Audio.FLAC2.0.x265-YURASUKA.mkv (740.2 MiB)
    • Infinite.Stratos.S01E04.1080p.BluRay.10-Bit.Dual-Audio.FLAC2.0.x265-YURASUKA.mkv (926.9 MiB)
    • Infinite.Stratos.S01E05.1080p.BluRay.10-Bit.Dual-Audio.FLAC2.0.x265-YURASUKA.mkv (727.2 MiB)
    • Infinite.Stratos.S01E06.1080p.BluRay.10-Bit.Dual-Audio.FLAC2.0.x265-YURASUKA.mkv (721.5 MiB)
    • Infinite.Stratos.S01E07.1080p.BluRay.10-Bit.Dual-Audio.FLAC2.0.x265-YURASUKA.mkv (811.6 MiB)
    • Infinite.Stratos.S01E08.1080p.BluRay.10-Bit.Dual-Audio.FLAC2.0.x265-YURASUKA.mkv (889.7 MiB)
    • Infinite.Stratos.S01E09.1080p.BluRay.10-Bit.Dual-Audio.FLAC2.0.x265-YURASUKA.mkv (803.8 MiB)
    • Infinite.Stratos.S01E10.1080p.BluRay.10-Bit.Dual-Audio.FLAC2.0.x265-YURASUKA.mkv (826.1 MiB)
    • Infinite.Stratos.S01E11.1080p.BluRay.10-Bit.Dual-Audio.FLAC2.0.x265-YURASUKA.mkv (922.4 MiB)
    • Infinite.Stratos.S01E12.1080p.BluRay.10-Bit.Dual-Audio.FLAC2.0.x265-YURASUKA.mkv (904.4 MiB)

Yurasuka (uploader)

User
Yes although I am having a hard time finding anything except AAC and AC3 audio for English. Not even sure if a higher quality audio track exists somewhere.
Wish this had another season or two!!
Thanks for this. Look forward to season 2
i love this anime so much