[Mysteria] Gun Gale Online [BD 1080p] (HVEC x265 10-bit Opus)

Category:
Date:
2020-05-29 18:08 UTC
Submitter:
Seeders:
2
File size:
3.5 GiB
Completed:
53
Info hash:
05f60923280ff69b056b6de77f66bc9f1b012f17
------------------------------------------------------------------------------------------------------------------------------------------------------------------------------------------- **[MEGA DDL: Gun Gale Online](https://mega.nz/folder/PsEiGQRY#bxDcf7J_aaxd1BPwxFOWgw) [BD 1080p](https://mega.nz/folder/PsEiGQRY#bxDcf7J_aaxd1BPwxFOWgw)** ---------------------------------------------------------------------------------------------------------------------------------------------------------------------------------------------- **Description:** Title: Sword Art Online Alternative: Gun Gale Online *Original Source: Beatrice-Raws *Video Format: x265 HEVC 10bit *Audio Codec: Japanese 2.0 Opus (320 kbps) *Subtitle Sources: 9volt, Horriblesubs (restyled) *Duration: 24 minutes per episode *Subtitle: English *Resolution/Quality: 1920x1080 or 1080p HD *Genre: Military, Virtual Reality *Age Rating: TV-MA **Media Info:** ``` [x265]/Sword Art Online Alternative: Gun Gale Online Format : Matroska File size : 248 MiB Duration : 24 min Overall bit rate : 1251 kb/s Movie name : Sword Art Online Alternative: Gun Gale Online Encoded date : UTC 2020-05-28 15:24:00 Writing application : mkvmerge v46.0.0 (‘No Deeper Escape’) 64-bit Writing library : libebml v1.3.10 + libmatroska v1.5.2 Video ID : 1 Format : HEVC Format/Info : High Efficiency Video Coding Codec ID : MPEG-H/ISO/HEVC Duration : 24 min Data Rate: : 1516 kb/s Bit rate : 1251 kb/s Width : 1920 pixels Height : 1080 pixels Display aspect ratio : 16:9 Frame rate mode : same source Frame rate : 23.98 FPS Bit depth : 10 bit Bits/(Pixel*Frame) : 0.099 Stream size : 287 MiB (82%) Writing library : x265 [Windows] [64 bit] 10bit Audio #1 ID : 2 Format : OPUS Format/Info : OPUS Codec ID : A OPUS Duration : 24 min Bit rate : 320 kb/s Channel(s) : 2 channels Channel positions : Front: L R Sampling rate : 48.0 kHz Compression mode : Lossy Title : Japanese Language : Japanese Default : Yes Forced : No Text #1 ID : 3 Format : Custom Muxing mode : zlib Codec ID : S_HDMV/PGS Codec ID/Info : Customized Subtitles Duration : 23:45:00 min Stream size : 1.60 MiB (1.05%) Title : English Language : English Default : No Forced : No ``` **Screens:** ![alt text](https://i.imgur.com/z4MjYpo.jpg) ![alt text](https://i.imgur.com/UK03q0N.jpg)

File list

  • [IngeniousSubs] Gun Gale Online OP+ED Subbed [BD 1080p] [OPUS]
    • Extras
      • Battles!.mkv (134.6 MiB)
      • Sword Art Online Alternative - Gun Gale Online - NCED.mkv (93.3 MiB)
      • Sword Art Online Alternative - Gun Gale Online - NCOP.mkv (177.3 MiB)
    • S01E01 Squad Jam.mkv (248.1 MiB)
    • S01E02 GGO.mkv (234.7 MiB)
    • S01E03 Fan Letter.mkv (213.8 MiB)
    • S01E04 Death Game.mkv (253.4 MiB)
    • S01E05 Leave the Last Battle to Me.mkv (313.2 MiB)
    • S01E06 SAO Loser.mkv (172.3 MiB)
    • S01E07 Second Squad Jam.mkv (196.0 MiB)
    • S01E08 Booby Trap.mkv (235.3 MiB)
    • S01E09 Ten-Minute Massacre.mkv (250.5 MiB)
    • S01E10 The Devil's Comeback.mkv (212.2 MiB)
    • S01E11 Psycho LLENN.mkv (271.5 MiB)
    • S01E12 Applause.mkv (231.5 MiB)
    • S01E5.5 Refrain.mkv (322.5 MiB)
wow, such high bitrate for audio and low for video :0

Ingenioussubs (uploader)

User
Thank you for noticing that. I actually typed it wrong. It’s been corrected.
Nice, but don't delete this, because I will download it later.

Ingenioussubs (uploader)

User
Here's the DDL if the torrent's too slow: https://mega.nz/folder/PsEiGQRY#bxDcf7J_aaxd1BPwxFOWgw