Parasite.2019.KOREAN.2160p.BluRay.REMUX.HEVC.DTS-HD.MA.TrueHD.7.1.Atmos-FGT

Category:
Date:
2020-05-29 07:35 UTC
Submitter:
Anonymous
Seeders:
1
Information:
Leechers:
61
File size:
85.5 GiB
Completed:
104
Info hash:
635100a77687dd3c1a99368c4e7d48a09b3ea518
![](https://dyncdn.me/mimages/337073/poster_opt.jpg) Korean & French Audio English & French Subtitle __Mediainfo:__ ``` Video ID : 1 Format : HEVC Format/Info : High Efficiency Video Coding Format profile : Main 10@L5.1@High HDR format : SMPTE ST 2086, HDR10 compatible Codec ID : V_MPEGH/ISO/HEVC Duration : 2 h 11 min Bit rate : 77.8 Mb/s Width : 3 840 pixels Height : 2 160 pixels Display aspect ratio : 16:9 Frame rate mode : Constant Frame rate : 23.976 (24000/1001) FPS Color space : YUV Chroma subsampling : 4:2:0 (Type 2) Bit depth : 10 bits Bits/(Pixel*Frame) : 0.391 Stream size : 71.6 GiB (84%) Title : Parasite.2019.KOREAN.2160p.BluRay.REMUX.HEVC.DTS-HD.MA.TrueHD.7.1.Atmos-FGT Writing library : ATEME Titan File 3.9.6 (4.9.6.1) Language : English Default : No Forced : No Color range : Limited Color primaries : BT.2020 Transfer characteristics : PQ Matrix coefficients : BT.2020 non-constant Mastering display color primaries : Display P3 Mastering display luminance : min: 0.0050 cd/m2, max: 1000 cd/m2 Maximum Content Light Level : 1094 cd/m2 Maximum Frame-Average Light Level : 251 cd/m2 Audio #1 ID : 2 Format : MLP FBA 16-ch Format/Info : Meridian Lossless Packing FBA with 16-channel presentation Commercial name : Dolby TrueHD with Dolby Atmos Codec ID : A_TRUEHD Duration : 2 h 11 min Bit rate mode : Variable Bit rate : 4 044 kb/s Maximum bit rate : 6 816 kb/s Channel(s) : 8 channels Channel layout : L R C LFE Ls Rs Lb Rb Sampling rate : 48.0 kHz Frame rate : 1 200.000 FPS (40 SPF) Compression mode : Lossless Stream size : 3.73 GiB (4%) Title : Parasite.2019.KOREAN.2160p.BluRay.REMUX.HEVC.DTS-HD.MA.TrueHD.7.1.Atmos-FGT Language : Korean Default : Yes Forced : No Number of dynamic objects : 11 Bed channel count : 1 channel Bed channel configuration : LFE Audio #2 ID : 3 Format : DTS XLL Format/Info : Digital Theater Systems Commercial name : DTS-HD Master Audio Codec ID : A_DTS Duration : 2 h 11 min Bit rate mode : Variable Bit rate : 4 108 kb/s Channel(s) : 8 channels Channel layout : C L R LFE Lb Rb Lss Rss Sampling rate : 48.0 kHz Frame rate : 93.750 FPS (512 SPF) Bit depth : 24 bits Compression mode : Lossless Stream size : 3.79 GiB (4%) Title : Parasite.2019.KOREAN.2160p.BluRay.REMUX.HEVC.DTS-HD.MA.TrueHD.7.1.Atmos-FGT Language : Korean Default : No Forced : No Audio #3 ID : 4 Format : AC-3 Format/Info : Audio Coding 3 Commercial name : Dolby Digital Codec ID : A_AC3 Duration : 2 h 11 min Bit rate mode : Constant Bit rate : 640 kb/s Channel(s) : 6 channels Channel layout : L R C LFE Ls Rs Sampling rate : 48.0 kHz Frame rate : 31.250 FPS (1536 SPF) Bit depth : 16 bits Compression mode : Lossy Stream size : 604 MiB (1%) Title : Parasite.2019.KOREAN.2160p.BluRay.REMUX.HEVC.DTS-HD.MA.TrueHD.7.1.Atmos-FGT Language : Korean Service kind : Complete Main Default : No Forced : No Audio #4 ID : 5 Format : DTS Format/Info : Digital Theater Systems Codec ID : A_DTS Duration : 2 h 11 min Bit rate mode : Constant Bit rate : 768 kb/s Channel(s) : 2 channels Channel layout : Lt Rt Sampling rate : 48.0 kHz Frame rate : 93.750 FPS (512 SPF) Bit depth : 16 bits Compression mode : Lossy Delay relative to video : 1 s 1 ms Stream size : 725 MiB (1%) Title : Parasite.2019.KOREAN.2160p.BluRay.REMUX.HEVC.DTS-HD.MA.TrueHD.7.1.Atmos-FGT Language : Korean Default : No Forced : No Audio #5 ID : 6 Format : DTS XLL Format/Info : Digital Theater Systems Commercial name : DTS-HD Master Audio Codec ID : A_DTS Duration : 2 h 11 min Bit rate mode : Variable Bit rate : 3 896 kb/s Channel(s) : 6 channels Channel layout : C L R Ls Rs LFE Sampling rate : 48.0 kHz Frame rate : 93.750 FPS (512 SPF) Bit depth : 24 bits Compression mode : Lossless Delay relative to video : 1 s 1 ms Stream size : 3.59 GiB (4%) Title : Parasite.2019.KOREAN.2160p.BluRay.REMUX.HEVC.DTS-HD.MA.TrueHD.7.1.Atmos-FGT Language : French Default : No Forced : No Audio #6 ID : 7 Format : DTS Format/Info : Digital Theater Systems Codec ID : A_DTS Duration : 2 h 11 min Bit rate mode : Constant Bit rate : 768 kb/s Channel(s) : 2 channels Channel layout : Lt Rt Sampling rate : 48.0 kHz Frame rate : 93.750 FPS (512 SPF) Bit depth : 16 bits Compression mode : Lossy Delay relative to video : 1 s 1 ms Stream size : 725 MiB (1%) Title : Parasite.2019.KOREAN.2160p.BluRay.REMUX.HEVC.DTS-HD.MA.TrueHD.7.1.Atmos-FGT Language : French Default : No Forced : No Audio #7 ID : 8 Format : DTS Format/Info : Digital Theater Systems Codec ID : A_DTS Duration : 2 h 11 min Bit rate mode : Constant Bit rate : 768 kb/s Channel(s) : 2 channels Channel layout : Lt Rt Sampling rate : 48.0 kHz Frame rate : 93.750 FPS (512 SPF) Bit depth : 16 bits Compression mode : Lossy Delay relative to video : 1 s 1 ms Stream size : 724 MiB (1%) Title : Parasite.2019.KOREAN.2160p.BluRay.REMUX.HEVC.DTS-HD.MA.TrueHD.7.1.Atmos-FGT Language : French Default : No Forced : No Text #1 ID : 9 Format : UTF-8 Codec ID : S_TEXT/UTF8 Codec ID/Info : UTF-8 Plain Text Duration : 2 h 5 min Bit rate : 54 b/s Count of elements : 1659 Stream size : 49.9 KiB (0%) Title : English-SRT Language : English Default : Yes Forced : Yes Text #2 ID : 10 Format : PGS Muxing mode : zlib Codec ID : S_HDMV/PGS Codec ID/Info : Picture based subtitle format used on BDs/HD-DVDs Duration : 2 h 10 min Bit rate : 27.8 kb/s Count of elements : 3548 Stream size : 26.0 MiB (0%) Title : French-PGS Language : French Default : No Forced : No Text #3 ID : 11 Format : PGS Muxing mode : zlib Codec ID : S_HDMV/PGS Codec ID/Info : Picture based subtitle format used on BDs/HD-DVDs Duration : 1 h 14 min Bit rate : 307 b/s Count of elements : 22 Stream size : 168 KiB (0%) Title : French-FORCED-PGS Language : French Default : No Forced : No Text #4 ID : 12 Format : PGS Muxing mode : zlib Codec ID : S_HDMV/PGS Codec ID/Info : Picture based subtitle format used on BDs/HD-DVDs Duration : 2 h 11 min Bit rate : 38.7 kb/s Count of elements : 5100 Stream size : 36.3 MiB (0%) Title : French-SDH-PGS Language : French Default : No Forced : No Menu 00:00:00.000 : en:Chapter 00 00:05:45.803 : en:Chapter 01 00:12:17.236 : en:Chapter 02 00:20:36.485 : en:Chapter 03 00:29:22.844 : en:Chapter 04 00:37:06.224 : en:Chapter 05 00:46:20.652 : en:Chapter 06 00:53:54.481 : en:Chapter 07 01:02:56.647 : en:Chapter 08 01:12:10.993 : en:Chapter 09 01:23:26.793 : en:Chapter 10 01:32:20.368 : en:Chapter 11 01:41:23.285 : en:Chapter 12 01:48:22.537 : en:Chapter 13 01:56:09.003 : en:Chapter 14 02:07:08.203 : en:Chapter 15

File list