[Lycan] Zentrix - 01-26 [480i][DVD]

Category:
Date:
2020-05-27 23:57 UTC
Submitter:
Seeders:
3
File size:
26.7 GiB
Completed:
83
Info hash:
6e1ae2c9a3fc45cc19b59239829b4d5666f2d23b
![Zentrix](https://i.imgur.com/WGqPsX2.jpg "Zentrix") ``` General Format : Matroska Format version : Version 4 File size : 998 MiB Duration : 25 min 1 s Overall bit rate mode : Variable Overall bit rate : 5 577 kb/s Movie name : zentrix_disc1 Encoded date : UTC 2020-05-26 23:11:39 Writing application : mkvmerge v44.0.0 ('Domino') 64-bit Writing library : libebml v1.3.10 + libmatroska v1.5.2 Video ID : 1 Format : MPEG Video Format version : Version 2 Format profile : Main@Main Format settings : CustomMatrix / BVOP Format settings, BVOP : Yes Format settings, Matrix : Custom Format settings, GOP : M=3, N=15 Format settings, picture struc : Frame Codec ID : V_MPEG2 Codec ID/Info : MPEG 1 or 2 Video Duration : 25 min 1 s Bit rate mode : Variable Bit rate : 5 383 kb/s Maximum bit rate : 7 500 kb/s Width : 720 pixels Height : 480 pixels Display aspect ratio : 4:3 Frame rate mode : Constant Frame rate : 29.970 (30000/1001) FPS Standard : NTSC Color space : YUV Chroma subsampling : 4:2:0 Bit depth : 8 bits Scan type : Interlaced Scan order : Top Field First Compression mode : Lossy Bits/(Pixel*Frame) : 0.520 Time code of first frame : 01:00:29:00 Time code source : Group of pictures header GOP, Open/Closed : Closed Stream size : 963 MiB (97%) Language : English Default : No Forced : No Audio ID : 2 Format : AC-3 Format/Info : Audio Coding 3 Commercial name : Dolby Digital Codec ID : A_AC3 Duration : 25 min 1 s Bit rate mode : Constant Bit rate : 192 kb/s Channel(s) : 2 channels Channel layout : L R Sampling rate : 48.0 kHz Frame rate : 31.250 FPS (1536 SPF) Compression mode : Lossy Stream size : 34.4 MiB (3%) Title : Stereo Language : English Service kind : Complete Main Default : Yes Forced : No Menu 00:00:00.066 : en:Chapter 01 00:02:54.741 : en:Chapter 02 00:04:24.731 : en:Chapter 03 00:24:00.105 : en:Chapter 04 ```

File list

  • Zentrix - DVDRip
    • Zentrix - 01 - The City of Zentrix.mkv (998.0 MiB)
    • Zentrix - 02 - Little Girl Megan.mkv (1009.3 MiB)
    • Zentrix - 03 - The Forest of Peachi-Wigis.mkv (1016.4 MiB)
    • Zentrix - 04 - Showdown with Dark-Alpha.mkv (1.0 GiB)
    • Zentrix - 05 - Sandstorm at the Pyramid.mkv (1.0 GiB)
    • Zentrix - 06 - Showdown with Dark-01.mkv (1.0 GiB)
    • Zentrix - 07 - The Deep Sea Monster.mkv (1.0 GiB)
    • Zentrix - 08 - The Complete Zeus.mkv (1021.1 MiB)
    • Zentrix - 09 - The Wacky Robot Professor.mkv (1.0 GiB)
    • Zentrix - 10 - The Deadly Combat Pit.mkv (1.0 GiB)
    • Zentrix - 11 - The Two Silly Fathers.mkv (1.0 GiB)
    • Zentrix - 12 - The Battle Below.mkv (1.0 GiB)
    • Zentrix - 13 - Zeus Goes Missing.mkv (1.1 GiB)
    • Zentrix - 14 - The Volcano Rockmen.mkv (1.0 GiB)
    • Zentrix - 15 - ZEUS RETURNS!.mkv (1.0 GiB)
    • Zentrix - 16 - The Battle of the Volcano.mkv (1.0 GiB)
    • Zentrix - 17 - Quantum's Big Pal.mkv (1.1 GiB)
    • Zentrix - 18 - The Penguin Tribe of the North.mkv (1.0 GiB)
    • Zentrix - 19 - Brave Little Mango.mkv (1.1 GiB)
    • Zentrix - 20 - Showdown with Dark-General.mkv (1.0 GiB)
    • Zentrix - 21 - Surprise Attack On Doctor Coy's Lab.mkv (1.0 GiB)
    • Zentrix - 22 - Silver General Gets the Upper Hand.mkv (1.0 GiB)
    • Zentrix - 23 - The Fight With OmicronPsy.mkv (1.0 GiB)
    • Zentrix - 24 - Nothing to Live For.mkv (1.1 GiB)
    • Zentrix - 25 - Race Against Time.mkv (1.1 GiB)
    • Zentrix - 26 - A Final Hope.mkv (1.0 GiB)
Thanks! Probably the closest in name with the great UK thrash band Xentrix. https://www.youtube.com/watch?v=IOesVcLjMaQ