Weathering.with.You.2019.JAPANESE.1080p.BluRay.REMUX.AVC.DTS-HD.MA.5.1-FGT

Category:
Date:
2020-05-26 09:08 UTC
Submitter:
Seeders:
3
Information:
No information.
Leechers:
0
File size:
32.7 GiB
Completed:
704
Info hash:
a61d8410749087b55c9fd6daa7abaee42a811bf6
Enjoy lads! It's finally here. #mediainfo Video ID : 1 ID in the original source medium : 4113 (0x1011) Format : AVC Format/Info : Advanced Video Codec Format profile : High@L4.1 Format settings : CABAC / 4 Ref Frames Format settings, CABAC : Yes Format settings, Reference frames : 4 frames Codec ID : V_MPEG4/ISO/AVC Duration : 1 h 52 min Bit rate mode : Variable Bit rate : 34.9 Mb/s Maximum bit rate : 37.0 Mb/s Width : 1 920 pixels Height : 1 080 pixels Display aspect ratio : 16:9 Frame rate mode : Constant Frame rate : 23.976 (24000/1001) FPS Color space : YUV Chroma subsampling : 4:2:0 Bit depth : 8 bits Scan type : Progressive Bits/(Pixel*Frame) : 0.702 Stream size : 27.4 GiB (84%) Title : Weathering.with.You.2019.JAPANESE.1080p.BluRay.REMUX.AVC.DTS-HD.MA.5.1-FGT Language : English Default : No Forced : No Color range : Limited Color primaries : BT.709 Transfer characteristics : BT.709 Matrix coefficients : BT.709 Original source medium : Blu-ray Audio #1 ID : 2 ID in the original source medium : 4352 (0x1100) Format : DTS XLL Format/Info : Digital Theater Systems Commercial name : DTS-HD Master Audio Codec ID : A_DTS Duration : 1 h 52 min Bit rate mode : Variable Bit rate : 3 557 kb/s Channel(s) : 6 channels Channel layout : C L R Ls Rs LFE Sampling rate : 48.0 kHz Frame rate : 93.750 FPS (512 SPF) Bit depth : 24 bits Compression mode : Lossless Stream size : 2.79 GiB (9%) Title : Weathering.with.You.2019.JAPANESE.1080p.BluRay.REMUX.AVC.DTS-HD.MA.5.1-FGT Language : Japanese Default : Yes Forced : No Original source medium : Blu-ray Audio #2 ID : 3 ID in the original source medium : 4353 (0x1101) Format : DTS XLL Format/Info : Digital Theater Systems Commercial name : DTS-HD Master Audio Codec ID : A_DTS Duration : 1 h 52 min Bit rate mode : Variable Bit rate : 2 043 kb/s Channel(s) : 2 channels Channel layout : L R Sampling rate : 48.0 kHz Frame rate : 93.750 FPS (512 SPF) Bit depth : 24 bits Compression mode : Lossless Stream size : 1.60 GiB (5%) Title : Weathering.with.You.2019.JAPANESE.1080p.BluRay.REMUX.AVC.DTS-HD.MA.5.1-FGT Language : Japanese Default : No Forced : No Original source medium : Blu-ray Audio #3 ID : 4 ID in the original source medium : 4354 (0x1102) Format : DTS Format/Info : Digital Theater Systems Codec ID : A_DTS Duration : 1 h 52 min Bit rate mode : Constant Bit rate : 768 kb/s Channel(s) : 6 channels Channel layout : C L R Ls Rs LFE Sampling rate : 48.0 kHz Frame rate : 93.750 FPS (512 SPF) Bit depth : 24 bits Compression mode : Lossy Stream size : 616 MiB (2%) Title : Weathering.with.You.2019.JAPANESE.1080p.BluRay.REMUX.AVC.DTS-HD.MA.5.1-FGT Language : Japanese Default : No Forced : No Original source medium : Blu-ray Audio #4 ID : 5 ID in the original source medium : 4355 (0x1103) Format : DTS Format/Info : Digital Theater Systems Codec ID : A_DTS Duration : 1 h 52 min Bit rate mode : Constant Bit rate : 255 kb/s Channel(s) : 2 channels Channel layout : L R Sampling rate : 48.0 kHz Frame rate : 93.750 FPS (512 SPF) Bit depth : 24 bits Compression mode : Lossy Stream size : 205 MiB (1%) Title : Weathering.with.You.2019.JAPANESE.1080p.BluRay.REMUX.AVC.DTS-HD.MA.5.1-FGT Language : Japanese Default : No Forced : No Original source medium : Blu-ray Text #1 ID : 6 Format : UTF-8 Codec ID : S_TEXT/UTF8 Codec ID/Info : UTF-8 Plain Text Duration : 1 h 51 min Bit rate : 65 b/s Count of elements : 1703 Stream size : 53.6 KiB (0%) Title : English-SRT Language : English Default : Yes Forced : No Text #2 ID : 7 ID in the original source medium : 4609 (0x1201) Format : PGS Muxing mode : zlib Codec ID : S_HDMV/PGS Codec ID/Info : Picture based subtitle format used on BDs/HD-DVDs Duration : 1 h 51 min Bit rate : 199 kb/s Count of elements : 9105 Stream size : 158 MiB (0%) Title : English-PGS Language : English Default : No Forced : No Original source medium : Blu-ray Text #3 ID : 8 ID in the original source medium : 4608 (0x1200) Format : PGS Muxing mode : zlib Codec ID : S_HDMV/PGS Codec ID/Info : Picture based subtitle format used on BDs/HD-DVDs Duration : 1 h 51 min Bit rate : 231 kb/s Count of elements : 9616 Stream size : 184 MiB (1%) Title : Japanese-PGS Language : Japanese Default : No Forced : No Original source medium : Blu-ray Text #4 ID : 9 ID in the original source medium : 4610 (0x1202) Format : PGS Muxing mode : zlib Codec ID : S_HDMV/PGS Codec ID/Info : Picture based subtitle format used on BDs/HD-DVDs Duration : 1 h 50 min Bit rate : 134 kb/s Count of elements : 8497 Stream size : 107 MiB (0%) Title : Chinese-PGS Language : Chinese Default : No Forced : No Original source medium : Blu-ray Menu 00:00:00.000 : ja:Chapter 01 00:03:52.315 : ja:Chapter 02 00:07:13.433 : ja:Chapter 03 00:11:51.210 : ja:Chapter 04 00:17:27.046 : ja:Chapter 05 00:19:46.351 : ja:Chapter 06 00:22:25.260 : ja:Chapter 07 00:26:08.066 : ja:Chapter 08 00:30:07.972 : ja:Chapter 09 00:34:27.982 : ja:Chapter 10 00:38:29.807 : ja:Chapter 11 00:41:36.243 : ja:Chapter 12 00:44:05.893 : ja:Chapter 13 00:47:58.876 : ja:Chapter 14 00:52:11.461 : ja:Chapter 15 00:55:55.852 : ja:Chapter 16 00:58:46.773 : ja:Chapter 17 01:01:42.532 : ja:Chapter 18 01:05:18.247 : ja:Chapter 19 01:08:55.923 : ja:Chapter 20 01:13:52.928 : ja:Chapter 21 01:16:58.697 : ja:Chapter 22 01:19:57.709 : ja:Chapter 23 01:23:15.949 : ja:Chapter 24 01:25:48.226 : ja:Chapter 25 01:28:51.117 : ja:Chapter 26 01:33:02.868 : ja:Chapter 27 01:38:33.115 : ja:Chapter 28 01:43:29.328 : ja:Chapter 29 01:47:40.829 : ja:Chapter 30 01:52:12.726 : ja:Chapter 31

File list

What does FGT and UE stand for ?
group release name
are the subs good?
Official Sub, mean it's good.

Tehe (uploader)

User
When it's official subtitle, you know it's good.
Official subs are almost always inferior to fansubs lol.
nice. was waiting for this
Anybody know if a fansub group is working on this?
commie !? they did [this](https://nyaa.si/view/1034519) so maybe !

DZY

User
@51:49 that shopkeeper is the adult Female MC from Your Name ?! :/

DZY

User
Damn! n this MC is Kirito from SAO :/ there are other characters looks very familiar from previous Movie /Anime .............
4k version when? :D
Please seed this at least a few hours after downloading my upload speed is beating my dl speed by light years
the 4k your name ver. sucked, why would you want another one?
@Valyrious most 4K anime is upscaled tho.
The English SRT sub has tons of errors and bad grammar. ex: 227 00:18:23,769 --> 00:18:28,771 Sometimes I rode around fown with natsum/ fo do some /nferviews. PGS subs are perfect.
FGT's SRT subs suck. They usually include the official PGS subs, but then also include a shitty OCR'd version of those subs as SRT (as you see here), but I don't know if they don't have a native English speaker or just don't care, but they don't bother to proof and fix the errors in the generated SRT subs.
they just don't care. they just auto run OCR and be done. no QC.
JESUS CHRIST, those SRT subs are terrible. Typos all over the place, random spaces, names not capitalized--what the hell? And the comments above say that these were done by FGT to simply have SRT subs, but there was no quality control. I don't get it. If the included, official PGS subs are correct and work fine, then why did they bother to half-ass SRT subs via OCR? Besides that, excellent remux. Save me the $50 until I get the money to buy the BD. Fuck waiting for GKids to take their time releasing this movie. It's 2020. If you wait 6 months to release it after the BD hits in another country, you just lose money. Idiots.