[Tess] Promare + Promare Galo-hen + Promare Lio-Hen [BD 1920x1080 AVC Dual-Audio AAC+AC3][Multi-Subs]

Category:
Date:
2020-05-24 23:08 UTC
Submitter:
Seeders:
2
Information:
No information.
Leechers:
0
File size:
8.5 GiB
Completed:
542
Info hash:
0a734a4e5d475a53e69dafe6748bffe5e1cce00f
Video Source: US BDMV Audio (Movie): qAAC @ q127 Japanese & English Audio (ONA): AC3 (Muxed from disc untouched) Subs (Movie): USBD PGS (English, English Alt Styling, Dubtitles, Spanish, French) Subs (ONA): USBD PGS (English only) Mediainfo: >General >Unique ID : 296692330930270349211261481540530199413 (0xDF34DD4BFF1EA0703C2C2647F82BDB75) >Complete name : [Tess] Promare [BD 1920x1080 AVC Dual-Audio AAC][D9979F1A].mkv >Format : Matroska >Format version : Version 4 >File size : 7.37 GiB >Duration : 1 h 51 min >Overall bit rate : 9 493 kb/s >Encoded date : UTC 2020-05-24 20:57:33 >Writing application : mkvmerge v46.0.0 ('No Deeper Escape') 64-bit >Writing library : libebml v1.3.10 + libmatroska v1.5.2 > >Video >ID : 1 >Format : AVC >Format/Info : Advanced Video Codec >Format profile : High 10@L5.1 >Format settings : CABAC / 12 Ref Frames >Format settings, CABAC : Yes >Format settings, Reference frames : 12 frames >Codec ID : V_MPEG4/ISO/AVC >Duration : 1 h 51 min >Bit rate : 7 903 kb/s >Width : 1 920 pixels >Height : 1 080 pixels >Display aspect ratio : 16:9 >Frame rate mode : Constant >Frame rate : 24.000 FPS >Color space : YUV >Chroma subsampling : 4:2:0 >Bit depth : 10 bits >Scan type : Progressive >Bits/(Pixel*Frame) : 0.159 >Stream size : 6.13 GiB (83%) >Writing library : x264 core 159 r2999 296494a >Encoding settings : cabac=1 / ref=12 / deblock=1:-2:-2 / analyse=0x3:0x133 / me=umh / subme=11 / psy=1 / psy_rd=1.00:0.00 / mixed_ref=1 / me_range=32 / chroma_me=1 / trellis=2 / 8x8dct=1 / cqm=0 / deadzone=21,11 / fast_pskip=0 / chroma_qp_offset=-2 / threads=24 / lookahead_threads=6 / sliced_threads=0 / slices=4 / nr=0 / decimate=1 / interlaced=0 / bluray_compat=0 / constrained_intra=0 / bframes=8 / b_pyramid=2 / b_adapt=2 / b_bias=0 / direct=3 / weightb=1 / open_gop=0 / weightp=2 / keyint=250 / keyint_min=24 / scenecut=40 / intra_refresh=0 / rc_lookahead=250 / rc=crf / mbtree=1 / crf=15.0 / qcomp=0.60 / qpmin=0 / qpmax=69 / qpstep=4 / vbv_maxrate=720000 / vbv_bufsize=720000 / crf_max=0.0 / nal_hrd=none / filler=0 / ip_ratio=1.40 / aq=3:0.80 >Default : Yes >Forced : No > >Audio #1 >ID : 2 >Format : AAC LC >Format/Info : Advanced Audio Codec Low Complexity >Codec ID : A_AAC-2 >Duration : 1 h 51 min >Bit rate : 754 kb/s >Channel(s) : 6 channels >Channel layout : C L R Ls Rs LFE >Sampling rate : 48.0 kHz >Frame rate : 46.875 FPS (1024 SPF) >Compression mode : Lossy >Delay relative to video : 20 ms >Stream size : 599 MiB (8%) >Language : Japanese >Default : Yes >Forced : No > >Audio #2 >ID : 3 >Format : AAC LC >Format/Info : Advanced Audio Codec Low Complexity >Codec ID : A_AAC-2 >Duration : 1 h 51 min >Bit rate : 740 kb/s >Channel(s) : 6 channels >Channel layout : C L R Ls Rs LFE >Sampling rate : 48.0 kHz >Frame rate : 46.875 FPS (1024 SPF) >Compression mode : Lossy >Delay relative to video : 20 ms >Stream size : 588 MiB (8%) >Language : English >Default : No >Forced : No > >Text #1 >ID : 4 >Format : PGS >Muxing mode : zlib >Codec ID : S_HDMV/PGS >Codec ID/Info : Picture based subtitle format used on BDs/HD-DVDs >Duration : 1 h 43 min >Bit rate : 27.1 kb/s >Count of elements : 2590 >Stream size : 20.0 MiB (0%) >Title : English >Language : English >Default : Yes >Forced : No > >Text #2 >ID : 5 >Format : PGS >Muxing mode : zlib >Codec ID : S_HDMV/PGS >Codec ID/Info : Picture based subtitle format used on BDs/HD-DVDs >Duration : 1 h 43 min >Bit rate : 23.5 kb/s >Count of elements : 2590 >Stream size : 17.4 MiB (0%) >Title : English Alt >Language : English >Default : No >Forced : No > >Text #3 >ID : 6 >Format : PGS >Muxing mode : zlib >Codec ID : S_HDMV/PGS >Codec ID/Info : Picture based subtitle format used on BDs/HD-DVDs >Duration : 1 h 45 min >Bit rate : 36.8 kb/s >Count of elements : 2143 >Stream size : 27.9 MiB (0%) >Title : Dubtitles >Language : English >Default : No >Forced : No > >Text #4 >ID : 7 >Format : PGS >Muxing mode : zlib >Codec ID : S_HDMV/PGS >Codec ID/Info : Picture based subtitle format used on BDs/HD-DVDs >Duration : 1 h 47 min >Bit rate : 28.7 kb/s >Count of elements : 2600 >Stream size : 22.1 MiB (0%) >Title : Spanish >Language : Spanish >Default : No >Forced : No > >Text #5 >ID : 8 >Format : PGS >Muxing mode : zlib >Codec ID : S_HDMV/PGS >Codec ID/Info : Picture based subtitle format used on BDs/HD-DVDs >Duration : 1 h 47 min >Bit rate : 29.0 kb/s >Count of elements : 2599 >Stream size : 22.4 MiB (0%) >Title : French >Language : French >Default : No >Forced : No > >Menu >00:00:00.000 : en:Chapter 01 >00:04:16.250 : en:Chapter 02 >00:09:23.083 : en:Chapter 03 >00:15:04.958 : en:Chapter 04 >00:19:49.916 : en:Chapter 05 >00:24:38.750 : en:Chapter 06 >00:29:37.791 : en:Chapter 07 >00:35:07.291 : en:Chapter 08 >00:40:26.000 : en:Chapter 09 >00:44:10.500 : en:Chapter 10 >00:48:59.458 : en:Chapter 11 >00:55:11.125 : en:Chapter 12 >01:00:28.333 : en:Chapter 13 >01:04:16.541 : en:Chapter 14 >01:09:30.083 : en:Chapter 15 >01:15:08.000 : en:Chapter 16 >01:20:26.000 : en:Chapter 17 >01:25:54.291 : en:Chapter 18 >01:29:26.708 : en:Chapter 19 >01:35:25.708 : en:Chapter 20 >01:40:11.625 : en:Chapter 21 >01:45:09.000 : en:Chapter 22 > >

File list

  • [Tess] Promare [BD 1920x1080 AVC Dual-Audio AAC]
    • [Tess] Promare Galo-hen [BD 1920x1080 AVC Dual-Audio AC3][16CC6ADB].mkv (551.8 MiB)
    • [Tess] Promare Lio-hen [BD 1920x1080 AVC Dual-Audio AC3][C98476A6].mkv (592.2 MiB)
    • [Tess] Promare [BD 1920x1080 AVC Dual-Audio AAC][D9979F1A].mkv (7.4 GiB)

Tesseract (uploader)

User
@uberasian the DTS-HD tracks were 3.5gb each so they ended up being larger than the encoded video file and I didn't feel like bloating the release that much for audio. qAAC @ q127 should be transparent enough that there shouldn't be any perceivable difference in audio quality.
Thanks for also including Galo and Lio Hen ^^^^
Thanks ===
Any plans to OCR the text into a softsub (.ass) format?