Evangelion 3.0 You Can (Not) Redo (2012) [1080p x265 HEVC 10bit BluRay Dual Audio AAC 5.1] [Prof].mkv

Category:
Date:
2020-05-23 15:09 UTC
Submitter:
Seeders:
0
Information:
No information.
Leechers:
0
File size:
3.0 GiB
Completed:
604
Info hash:
be99d161ab6b3348211ed805cac165b8eebb2c72
Format : Matroska Format version : Version 4 File size : 3.03 GiB Duration : 1 h 35 min Overall bit rate : 4 528 kb/s Encoded date : UTC 2020-05-23 14:32:51 Video ID : 1 Format : HEVC Format/Info : High Efficiency Video Coding Format profile : Main 10@L4@Main Codec ID : V_MPEGH/ISO/HEVC Duration : 1 h 35 min Bit rate : 2 668 kb/s Width : 1 920 pixels Height : 816 pixels Display aspect ratio : 2.35:1 Frame rate mode : Constant Frame rate : 23.976 (24000/1001) FPS Color space : YUV Chroma subsampling : 4:2:0 Bit depth : 10 bits Bits/(Pixel*Frame) : 0.071 Stream size : 1.78 GiB (59%) Writing library : x265 3.3+4-g85d84b2af:[Windows][MSVC 1925][64 bit] 10bit Encoding settings : cpuid=1111039 / frame-threads=3 / numa-pools=12 / wpp / no-pmode / no-pme / no-psnr / no-ssim / log-level=2 / input-csp=1 / input-res=1920x816 / interlace=0 / total-frames=137713 / level-idc=0 / high-tier=1 / uhd-bd=0 / ref=4 / no-allow-non-conformance / no-repeat-headers / annexb / no-aud / no-hrd / info / hash=0 / no-temporal-layers / open-gop / min-keyint=23 / keyint=250 / gop-lookahead=0 / bframes=8 / b-adapt=2 / b-pyramid / bframe-bias=0 / rc-lookahead=80 / lookahead-slices=5 / scenecut=40 / hist-scenecut=0 / radl=0 / no-splice / no-intra-refresh / ctu=64 / min-cu-size=8 / rect / no-amp / max-tu-size=32 / tu-inter-depth=1 / tu-intra-depth=1 / limit-tu=0 / rdoq-level=2 / dynamic-rd=0.00 / no-ssim-rd / signhide / no-tskip / nr-intra=0 / nr-inter=0 / no-constrained-intra / strong-intra-smoothing / max-merge=3 / limit-refs=3 / limit-modes / me=3 / subme=3 / merange=57 / temporal-mvp / no-frame-dup / no-hme / weightp / no-weightb / no-analyze-src-pics / deblock=0:0 / sao / no-sao-non-deblock / rd=4 / selective-sao=4 / no-early-skip / rskip / no-fast-intra / no-tskip-fast / no-cu-lossless / no-b-intra / no-splitrd-skip / rdpenalty=0 / psy-rd=2.00 / psy-rdoq=1.00 / no-rd-refine / no-lossless / cbqpoffs=0 / crqpoffs=0 / rc=crf / crf=18.0 / qcomp=0.60 / qpstep=4 / stats-write=0 / stats-read=0 / ipratio=1.40 / pbratio=1.30 / aq-mode=3 / aq-strength=1.00 / cutree / zone-count=0 / no-strict-cbr / qg-size=32 / no-rc-grain / qpmax=69 / qpmin=0 / no-const-vbv / sar=0 / overscan=0 / videoformat=5 / range=0 / colorprim=2 / transfer=2 / colormatrix=2 / chromaloc=0 / display-window=0 / cll=0,0 / min-luma=0 / max-luma=1023 / log2-max-poc-lsb=8 / vui-timing-info / vui-hrd-info / slices=1 / no-opt-qp-pps / no-opt-ref-list-length-pps / no-multi-pass-opt-rps / scenecut-bias=0.05 / hist-threshold=0.01 / no-opt-cu-delta-qp / no-aq-motion / no-hdr10 / no-hdr10-opt / no-dhdr10-opt / no-idr-recovery-sei / analysis-reuse-level=0 / analysis-save-reuse-level=0 / analysis-load-reuse-level=0 / scale-factor=0 / refine-intra=0 / refine-inter=0 / refine-mv=1 / refine-ctu-distortion=0 / no-limit-sao / ctu-info=0 / no-lowpass-dct / refine-analysis-type=0 / copy-pic=1 / max-ausize-factor=1.0 / no-dynamic-refine / no-single-sei / no-hevc-aq / no-svt / no-field / qp-adaptation-range=1.00 / no-scenecut-aware-qpconformance-window-offsets / right=0 / bottom=0 Default : Yes Forced : No Audio #1 ID : 5 Format : AAC LC Format/Info : Advanced Audio Codec Low Complexity Codec ID : A_AAC-2 Duration : 1 h 35 min Bit rate : 870 kb/s Channel(s) : 6 channels Channel layout : C L R Ls Rs LFE Sampling rate : 48.0 kHz Frame rate : 46.875 FPS (1024 SPF) Compression mode : Lossy Delay relative to video : 9 ms Stream size : 596 MiB (19%) Language : English Default : Yes Forced : No Audio #2 ID : 6 Format : AAC LC Format/Info : Advanced Audio Codec Low Complexity Codec ID : A_AAC-2 Duration : 1 h 35 min Bit rate : 964 kb/s Channel(s) : 6 channels Channel layout : C L R Ls Rs LFE Sampling rate : 48.0 kHz Frame rate : 46.875 FPS (1024 SPF) Compression mode : Lossy Delay relative to video : 9 ms Stream size : 660 MiB (21%) Language : Japanese Default : No Forced : No Text #1 ID : 2 Format : PGS Muxing mode : zlib Codec ID : S_HDMV/PGS Codec ID/Info : Picture based subtitle format used on BDs/HD-DVDs Duration : 1 h 34 min Bit rate : 39.3 kb/s Count of elements : 2133 Stream size : 26.7 MiB (1%) Language : English Default : No Forced : No Text #2 ID : 3 Format : PGS Muxing mode : zlib Codec ID : S_HDMV/PGS Codec ID/Info : Picture based subtitle format used on BDs/HD-DVDs Duration : 1 h 34 min Bit rate : 34.6 kb/s Count of elements : 1997 Stream size : 23.5 MiB (1%) Language : English Default : No Forced : No Text #3 ID : 4 Format : PGS Muxing mode : zlib Codec ID : S_HDMV/PGS Codec ID/Info : Picture based subtitle format used on BDs/HD-DVDs Duration : 1 h 2 min Bit rate : 501 b/s Count of elements : 23 Stream size : 231 KiB (0%) Language : English Default : Yes Forced : No Menu 00:00:00.000 : en:Chapter 01 00:00:10.344 : en:Chapter 02 00:00:20.646 : en:Chapter 03 00:00:34.994 : en:Chapter 04 00:00:41.167 : en:Chapter 05 00:03:30.836 : en:Chapter 06 00:05:18.861 : en:Chapter 07 00:09:16.181 : en:Chapter 08 00:10:50.609 : en:Chapter 09 00:13:03.408 : en:Chapter 10 00:17:07.235 : en:Chapter 11 00:20:42.450 : en:Chapter 12 00:25:08.674 : en:Chapter 13 00:27:12.673 : en:Chapter 14 00:29:13.085 : en:Chapter 15 00:33:02.064 : en:Chapter 16 00:34:39.870 : en:Chapter 17 00:36:41.366 : en:Chapter 18 00:37:50.227 : en:Chapter 19 00:41:29.779 : en:Chapter 20 00:42:09.778 : en:Chapter 21 00:42:46.106 : en:Chapter 22 00:44:40.929 : en:Chapter 23 00:46:03.553 : en:Chapter 24 00:48:17.520 : en:Chapter 25 00:50:30.903 : en:Chapter 26 00:53:11.314 : en:Chapter 27 00:56:08.324 : en:Chapter 28 00:59:10.130 : en:Chapter 29 01:00:57.905 : en:Chapter 30 01:01:06.330 : en:Chapter 31 01:04:46.800 : en:Chapter 32 01:08:53.547 : en:Chapter 33 01:12:10.618 : en:Chapter 34 01:14:23.543 : en:Chapter 35 01:17:41.783 : en:Chapter 36 01:20:26.447 : en:Chapter 37 01:23:46.647 : en:Chapter 38 01:26:16.463 : en:Chapter 39 01:30:39.184 : en:Chapter 40 01:35:17.045 : en:Chapter 41 01:35:47.743 : en:Chapter 42 01:35:54.124 : en:Chapter 43

File list

  • Evangelion 3.0 You Can (Not) Redo (2012) [1080p x265 HEVC 10bit BluRay Dual Audio AAC 5.1] [Prof].mkv (3.0 GiB)
big fat thanks to you brother
Finally here :)