Porco.Rosso [H264 1080p AC3 Ita Eng Jap SUB Ita Eng] [Rady]

Category:
Date:
2020-05-23 01:31 UTC
Submitter:
Seeders:
0
Information:
Porco.Rosso [H264 1080p AC3 Ita Eng Jap SUB Ita Eng] [Rady]
Leechers:
6
File size:
4.4 GiB
Completed:
22
Info hash:
77f272dd9d4ec3c5a6eeb6eda2ab93a6bcddac1c
General Unique ID : 250872526141938843485209112402284082196 (0xBCBC4A81141E6BD6850A0ECAA3997414) Complete name : C:\Users\Rady\Downloads\eMule\Incoming\Porco.Rosso [H264 1080p AC3 Ita Eng Jap SUB Ita Eng] [Rady].mkv Format : Matroska Format version : Version 4 File size : 4.37 GiB Duration : 1 h 29 min Overall bit rate : 6 991 kb/s Encoded date : UTC 2013-08-13 18:55:35 Writing application : mkvmerge v6.3.0 ('You can't stop me!') built on Jun 27 2013 22:06:07 Writing library : libebml v1.3.0 + libmatroska v1.4.0 Video ID : 1 Format : AVC Format/Info : Advanced Video Codec Format profile : High@L4.1 Format settings : CABAC / 4 Ref Frames Format settings, CABAC : Yes Format settings, Reference frames : 4 frames Codec ID : V_MPEG4/ISO/AVC Duration : 1 h 29 min Bit rate : 6 396 kb/s Width : 1 920 pixels Height : 1 036 pixels Display aspect ratio : 1.85:1 Frame rate mode : Constant Frame rate : 25.000 FPS Color space : YUV Chroma subsampling : 4:2:0 Bit depth : 8 bits Scan type : Progressive Bits/(Pixel*Frame) : 0.129 Stream size : 3.92 GiB (90%) Writing library : x264 core 133 r2334 a3ac64b Encoding settings : cabac=1 / ref=4 / deblock=1:-1:-1 / analyse=0x3:0x133 / me=umh / subme=10 / psy=1 / psy_rd=1.00:0.00 / mixed_ref=1 / me_range=32 / chroma_me=1 / trellis=2 / 8x8dct=1 / cqm=0 / deadzone=21,11 / fast_pskip=0 / chroma_qp_offset=-2 / threads=12 / lookahead_threads=1 / sliced_threads=0 / nr=0 / decimate=0 / interlaced=0 / bluray_compat=0 / constrained_intra=0 / bframes=4 / b_pyramid=2 / b_adapt=2 / b_bias=0 / direct=3 / weightb=1 / open_gop=0 / weightp=2 / keyint=240 / keyint_min=24 / scenecut=40 / intra_refresh=0 / rc_lookahead=50 / rc=2pass / mbtree=1 / bitrate=6396 / ratetol=1.0 / qcomp=0.60 / qpmin=0 / qpmax=69 / qpstep=4 / cplxblur=20.0 / qblur=0.5 / vbv_maxrate=50000 / vbv_bufsize=50000 / nal_hrd=none / ip_ratio=1.40 / aq=1:1.00 Language : Japanese Default : Yes Forced : No Duration_Source : General_Duration Audio #1 ID : 2 Format : AC-3 Format/Info : Audio Coding 3 Commercial name : Dolby Digital Codec ID : A_AC3 Duration : 1 h 29 min Bit rate mode : Constant Bit rate : 192 kb/s Channel(s) : 2 channels Channel layout : L R Sampling rate : 48.0 kHz Frame rate : 31.250 FPS (1536 SPF) Compression mode : Lossy Delay relative to video : 28 ms Stream size : 123 MiB (3%) Title : Italiano AC3 2.0 Language : Italian Service kind : Complete Main Default : Yes Forced : No Duration_Source : General_Duration Audio #2 ID : 3 Format : AC-3 Format/Info : Audio Coding 3 Commercial name : Dolby Digital Codec ID : A_AC3 Duration : 1 h 29 min Bit rate mode : Constant Bit rate : 192 kb/s Channel(s) : 2 channels Channel layout : L R Sampling rate : 48.0 kHz Frame rate : 31.250 FPS (1536 SPF) Compression mode : Lossy Delay relative to video : 28 ms Stream size : 123 MiB (3%) Title : Giapponese AC3 2.0 Language : Japanese Service kind : Complete Main Default : No Forced : No Duration_Source : General_Duration Audio #3 ID : 4 Format : AC-3 Format/Info : Audio Coding 3 Commercial name : Dolby Digital Codec ID : A_AC3 Duration : 1 h 29 min Bit rate mode : Constant Bit rate : 192 kb/s Channel(s) : 2 channels Channel layout : L R Sampling rate : 48.0 kHz Frame rate : 31.250 FPS (1536 SPF) Compression mode : Lossy Delay relative to video : 28 ms Stream size : 123 MiB (3%) Title : Inglese AC3 2.0 Language : English Service kind : Complete Main Default : No Forced : No Duration_Source : General_Duration

File list

  • Porco.Rosso [H264 1080p AC3 Ita Eng Jap SUB Ita Eng] [Rady].mkv (4.4 GiB)
this might have been a masterpiece but he had to make the hero into a slob of a pig. really sad and dumb choice. The sainted director has a perverted and angry streak that ruined his own best works with bizarre stuff. A twisted personality combined with a genius at visual art and beuaty. sad story.