Evangelion 2.0 You Can (Not) Advance (2009) [1080p x265 HEVC 10bit BluRay Dual Audio AAC 6.1] [Prof].mkv

Category:
Date:
2020-05-23 01:22 UTC
Submitter:
Seeders:
37
Information:
No information.
Leechers:
9
File size:
4.0 GiB
Completed:
497
Info hash:
044148d312d323608e87de5fc3e81b62db260449
Format : Matroska Format version : Version 4 File size : 3.97 GiB Duration : 1 h 52 min Overall bit rate : 5 056 kb/s Encoded date : UTC 2020-05-22 04:14:16 Writing application : mkvmerge v41.0.0 ('Smarra') 64-bit Writing library : libebml v1.3.9 + libmatroska v1.5.2 Video ID : 1 Format : HEVC Format/Info : High Efficiency Video Coding Format profile : Main 10@L4@Main Codec ID : V_MPEGH/ISO/HEVC Duration : 1 h 52 min Bit rate : 2 677 kb/s Width : 1 920 pixels Height : 1 080 pixels Display aspect ratio : 16:9 Frame rate mode : Constant Frame rate : 23.976 (24000/1001) FPS Color space : YUV Chroma subsampling : 4:2:0 Bit depth : 10 bits Bits/(Pixel*Frame) : 0.054 Stream size : 2.10 GiB (53%) Writing library : x265 3.3+4-g85d84b2af:[Windows][MSVC 1925][64 bit] 10bit Encoding settings : cpuid=1111039 / frame-threads=3 / numa-pools=12 / wpp / no-pmode / no-pme / no-psnr / no-ssim / log-level=2 / input-csp=1 / input-res=1920x1080 / interlace=0 / total-frames=161556 / level-idc=0 / high-tier=1 / uhd-bd=0 / ref=4 / no-allow-non-conformance / no-repeat-headers / annexb / no-aud / no-hrd / info / hash=0 / no-temporal-layers / open-gop / min-keyint=23 / keyint=250 / gop-lookahead=0 / bframes=8 / b-adapt=2 / b-pyramid / bframe-bias=0 / rc-lookahead=80 / lookahead-slices=6 / scenecut=40 / hist-scenecut=0 / radl=0 / no-splice / no-intra-refresh / ctu=64 / min-cu-size=8 / rect / no-amp / max-tu-size=32 / tu-inter-depth=1 / tu-intra-depth=1 / limit-tu=0 / rdoq-level=2 / dynamic-rd=0.00 / no-ssim-rd / signhide / no-tskip / nr-intra=0 / nr-inter=0 / no-constrained-intra / strong-intra-smoothing / max-merge=3 / limit-refs=3 / limit-modes / me=3 / subme=3 / merange=57 / temporal-mvp / no-frame-dup / no-hme / weightp / no-weightb / no-analyze-src-pics / deblock=0:0 / sao / no-sao-non-deblock / rd=4 / selective-sao=4 / no-early-skip / rskip / no-fast-intra / no-tskip-fast / no-cu-lossless / no-b-intra / no-splitrd-skip / rdpenalty=0 / psy-rd=2.00 / psy-rdoq=1.00 / no-rd-refine / no-lossless / cbqpoffs=0 / crqpoffs=0 / rc=crf / crf=18.0 / qcomp=0.60 / qpstep=4 / stats-write=0 / stats-read=0 / ipratio=1.40 / pbratio=1.30 / aq-mode=3 / aq-strength=1.00 / cutree / zone-count=0 / no-strict-cbr / qg-size=32 / no-rc-grain / qpmax=69 / qpmin=0 / no-const-vbv / sar=0 / overscan=0 / videoformat=5 / range=0 / colorprim=2 / transfer=2 / colormatrix=1 / chromaloc=0 / display-window=0 / cll=0,0 / min-luma=0 / max-luma=1023 / log2-max-poc-lsb=8 / vui-timing-info / vui-hrd-info / slices=1 / no-opt-qp-pps / no-opt-ref-list-length-pps / no-multi-pass-opt-rps / scenecut-bias=0.05 / hist-threshold=0.01 / no-opt-cu-delta-qp / no-aq-motion / no-hdr10 / no-hdr10-opt / no-dhdr10-opt / no-idr-recovery-sei / analysis-reuse-level=0 / analysis-save-reuse-level=0 / analysis-load-reuse-level=0 / scale-factor=0 / refine-intra=0 / refine-inter=0 / refine-mv=1 / refine-ctu-distortion=0 / no-limit-sao / ctu-info=0 / no-lowpass-dct / refine-analysis-type=0 / copy-pic=1 / max-ausize-factor=1.0 / no-dynamic-refine / no-single-sei / no-hevc-aq / no-svt / no-field / qp-adaptation-range=1.00 / no-scenecut-aware-qpconformance-window-offsets / right=0 / bottom=0 Default : Yes Forced : No Color range : Limited Matrix coefficients : BT.709 Audio #1 ID : 4 Format : AAC LC Format/Info : Advanced Audio Codec Low Complexity Codec ID : A_AAC-2 Duration : 1 h 52 min Bit rate : 1 231 kb/s Channel(s) : 7 channels Channel layout : C L R Ls Rs Cb LFE Sampling rate : 48.0 kHz Frame rate : 46.875 FPS (1024 SPF) Compression mode : Lossy Delay relative to video : 9 ms Stream size : 989 MiB (24%) Language : English Default : Yes Forced : No Audio #2 ID : 5 Format : AAC LC Format/Info : Advanced Audio Codec Low Complexity Codec ID : A_AAC-2 Duration : 1 h 52 min Bit rate : 1 131 kb/s Channel(s) : 7 channels Channel layout : C L R Ls Rs Cb LFE Sampling rate : 48.0 kHz Frame rate : 46.875 FPS (1024 SPF) Compression mode : Lossy Delay relative to video : 9 ms Stream size : 909 MiB (22%) Language : Japanese Default : No Forced : No Text #1 ID : 2 Format : PGS Muxing mode : zlib Codec ID : S_HDMV/PGS Codec ID/Info : Picture based subtitle format used on BDs/HD-DVDs Duration : 1 h 51 min Bit rate : 40.1 kb/s Count of elements : 3124 Stream size : 32.0 MiB (1%) Language : English Default : No Forced : No Text #2 ID : 3 Format : PGS Muxing mode : zlib Codec ID : S_HDMV/PGS Codec ID/Info : Picture based subtitle format used on BDs/HD-DVDs Duration : 1 h 43 min Bit rate : 2 684 b/s Count of elements : 252 Stream size : 1.98 MiB (0%) Language : English Default : Yes Forced : No Menu 00:00:00.000 : en:Chapter 01 00:02:21.391 : en:Chapter 02 00:05:45.887 : en:Chapter 03 00:08:35.181 : en:Chapter 04 00:09:33.573 : en:Chapter 05 00:11:29.563 : en:Chapter 06 00:14:47.011 : en:Chapter 07 00:15:46.862 : en:Chapter 08 00:17:06.650 : en:Chapter 09 00:18:44.665 : en:Chapter 10 00:21:18.110 : en:Chapter 11 00:23:33.245 : en:Chapter 12 00:26:33.925 : en:Chapter 13 00:28:05.642 : en:Chapter 14 00:31:04.028 : en:Chapter 15 00:32:48.633 : en:Chapter 16 00:35:09.357 : en:Chapter 17 00:39:27.656 : en:Chapter 18 00:41:01.584 : en:Chapter 19 00:44:23.535 : en:Chapter 20 00:48:57.851 : en:Chapter 21 00:50:55.343 : en:Chapter 22 00:53:10.770 : en:Chapter 23 00:58:20.497 : en:Chapter 24 01:00:27.874 : en:Chapter 25 01:01:05.578 : en:Chapter 26 01:06:15.680 : en:Chapter 27 01:08:17.968 : en:Chapter 28 01:10:42.154 : en:Chapter 29 01:11:33.247 : en:Chapter 30 01:14:14.575 : en:Chapter 31 01:25:22.242 : en:Chapter 32 01:27:39.671 : en:Chapter 33 01:29:43.378 : en:Chapter 34 01:34:45.471 : en:Chapter 35 01:36:55.643 : en:Chapter 36 01:38:50.841 : en:Chapter 37 01:41:13.192 : en:Chapter 38 01:45:54.056 : en:Chapter 39 01:51:32.727 : en:Chapter 40 01:52:07.721 : en:Chapter 41

File list

  • Evangelion 2.0 You Can (Not) Advance (2009) [1080p x265 HEVC 10bit BluRay Dual Audio AAC 6.1] [Prof].mkv (4.0 GiB)