Gabriel.DropOut.S01.1080p.BluRay.10-Bit.FLAC2.0.x265-YURASUKA

Category:
Date:
2020-05-22 16:05 UTC
Submitter:
Seeders:
7
Information:
Leechers:
1
File size:
6.3 GiB
Completed:
120
Info hash:
050307509e352aeb17084fd1462d6bf5eec36aa2
Gabriel DropOut (2017) The only English-translated 1080p x265 release was a re-encode of a re-encode, so I made a proper one. All episodes encoded at CRF 16. A/V Source: Anti-Raws BD Remux Subtitle Source: [Muxer](https://nyaa.si/view/948513) (ASS) ``` Complete name : Gabriel.DropOut.S01E01.1080p.BluRay.10-Bit.FLAC2.0.x265-YURASUKA.mkv Format : Matroska Format version : Version 4 File size : 572 MiB Duration : 23 min 42 s Overall bit rate mode : Variable Overall bit rate : 3 375 kb/s Movie name : Gabriel.DropOut.S01E01.1080p.BluRay.10-Bit.FLAC2.0.x265-YURASUKA Encoded date : UTC 2020-05-22 14:56:44 Writing application : mkvmerge v46.0.0 ('No Deeper Escape') 64-bit Writing library : libebml v1.3.10 + libmatroska v1.5.2 / Lavf58.29.100 Attachments : A-OTF-Jun34Pro-Medium-Jinrui.TTF / BPreplayBold.otf / erasdust.ttf / Federo-Regular.ttf / FOT-GMaruGo Pro UH EN.ttf / FOT-POPHAPPINESSSTD-EB-EN.ttf / FOT-RODINHAPPYPRO-EB.ttf / FOTPopJoyStdStripped-B.otf / GOTH720B.TTF / Hand of Diesel.ttf / IwaOMinPro-Bd-Fate_B.ttf / JANIHB.TTF / KOZGOPRO-HEAVY-MADOKA.TTF / KOZGOPRO-MEDIUM-ENG.TTF / KozGoProStrp-Heavy.ttf / KOZUKAGOTHICPR6NH.TTF / KOZUKAMINCHOPR6N-H.TTF / KozukaMinchoProStrp-H.otf / KozukaMinchoProStrp-M.otf / MarkerCre-Fixed.ttf / Painfresco-Italic.ttf / Painfresco-Regular.ttf / Polo Brush.ttf / Rosario-Bold.ttf / Rosario-BoldItalic.ttf / Rosario-Italic.ttf / Rosario-Regular.ttf / rounded-mgenplus-1cp-bold-stripped.ttf / sketch-me-tr.ttf Video ID : 1 Format : HEVC Format/Info : High Efficiency Video Coding Format profile : Main 10@L5@High Codec ID : V_MPEGH/ISO/HEVC Duration : 23 min 42 s Bit rate : 2 649 kb/s Width : 1 920 pixels Height : 1 080 pixels Display aspect ratio : 16:9 Frame rate mode : Constant Frame rate : 23.976 (24000/1001) FPS Color space : YUV Chroma subsampling : 4:2:0 Bit depth : 10 bits Bits/(Pixel*Frame) : 0.053 Stream size : 449 MiB (78%) Writing library : x265 3.2.1+1-b5c86a64bbbe:[Linux][GCC 9.3.0][64 bit] 10bit Encoding settings : cpuid=1111039 / frame-threads=4 / wpp / no-pmode / no-pme / no-psnr / no-ssim / log-level=2 / input-csp=1 / input-res=1920x1080 / interlace=0 / total-frames=0 / level-idc=50 / high-tier=1 / uhd-bd=0 / ref=6 / no-allow-non-conformance / no-repeat-headers / annexb / no-aud / no-hrd / info / hash=0 / no-temporal-layers / open-gop / min-keyint=24 / keyint=240 / gop-lookahead=0 / bframes=16 / b-adapt=2 / b-pyramid / bframe-bias=0 / rc-lookahead=50 / lookahead-slices=4 / scenecut=40 / radl=0 / no-splice / no-intra-refresh / ctu=64 / min-cu-size=8 / rect / no-amp / max-tu-size=32 / tu-inter-depth=1 / tu-intra-depth=1 / limit-tu=0 / rdoq-level=2 / dynamic-rd=0.00 / no-ssim-rd / signhide / no-tskip / nr-intra=0 / nr-inter=0 / no-constrained-intra / strong-intra-smoothing / max-merge=3 / limit-refs=3 / limit-modes / me=3 / subme=3 / merange=57 / temporal-mvp / no-hme / weightp / no-weightb / no-analyze-src-pics / deblock=1:1 / sao / no-sao-non-deblock / rd=4 / selective-sao=4 / no-early-skip / rskip / no-fast-intra / no-tskip-fast / no-cu-lossless / no-b-intra / no-splitrd-skip / rdpenalty=0 / psy-rd=0.40 / psy-rdoq=1.00 / no-rd-refine / no-lossless / cbqpoffs=0 / crqpoffs=0 / rc=crf / crf=16.0 / qcomp=0.60 / qpstep=4 / stats-write=0 / stats-read=0 / vbv-maxrate=100000 / vbv-bufsize=100000 / vbv-init=0.9 / crf-max=0.0 / crf-min=0.0 / ipratio=1.40 / pbratio=1.30 / aq-mode=2 / aq-strength=0.80 / cutree / zone-count=0 / no-strict-cbr / qg-size=32 / no-rc-grain / qpmax=69 / qpmin=0 / no-const-vbv / sar=1 / overscan=0 / videoformat=5 / range=0 / colorprim=1 / transfer=1 / colormatrix=1 / chromaloc=0 / display-window=0 / cll=0,0 / min-luma=0 / max-luma=1023 / log2-max-poc-lsb=8 / vui-timing-info / vui-hrd-info / slices=1 / no-opt-qp-pps / no-opt-ref-list-length-pps / no-multi-pass-opt-rps / scenecut-bias=0.05 / no-opt-cu-delta-qp / no-aq-motion / no-hdr / no-hdr-opt / no-dhdr10-opt / no-idr-recovery-sei / analysis-reuse-level=5 / scale-factor=0 / refine-intra=0 / refine-inter=0 / refine-mv=1 / refine-ctu-distortion=0 / no-limit-sao / ctu-info=0 / no-lowpass-dct / refine-analysis-type=0 / copy-pic=1 / max-ausize-factor=1.0 / no-dynamic-refine / no-single-sei / no-hevc-aq / no-svt / no-field / qp-adaptation-range=1.00 Language : Japanese Default : Yes Forced : No Color range : Limited Color primaries : BT.709 Transfer characteristics : BT.709 Matrix coefficients : BT.709 Audio ID : 2 Format : FLAC Format/Info : Free Lossless Audio Codec Codec ID : A_FLAC Duration : 23 min 42 s Bit rate mode : Variable Bit rate : 677 kb/s Channel(s) : 2 channels Channel layout : L R Sampling rate : 48.0 kHz Frame rate : 11.719 FPS (4096 SPF) Bit depth : 16 bits Compression mode : Lossless Stream size : 115 MiB (20%) Language : Japanese Default : Yes Forced : No Text ID : 3 Format : ASS Codec ID : S_TEXT/ASS Codec ID/Info : Advanced Sub Station Alpha Duration : 23 min 38 s Bit rate : 12.5 kb/s Count of elements : 6121 Compression mode : Lossless Stream size : 2.11 MiB (0%) Language : English Default : Yes Forced : No ``` Deadend for a sucker that’s a sucker like me.

File list

  • Gabriel.DropOut.S01.1080p.BluRay.10-Bit.FLAC2.0.x265-YURASUKA
    • Gabriel.DropOut.S00E01.1080p.BluRay.10-Bit.FLAC2.0.x265-YURASUKA.mkv (307.3 MiB)
    • Gabriel.DropOut.S00E02.1080p.BluRay.10-Bit.FLAC2.0.x265-YURASUKA.mkv (376.7 MiB)
    • Gabriel.DropOut.S01E01.1080p.BluRay.10-Bit.FLAC2.0.x265-YURASUKA.mkv (572.2 MiB)
    • Gabriel.DropOut.S01E02.1080p.BluRay.10-Bit.FLAC2.0.x265-YURASUKA.mkv (469.6 MiB)
    • Gabriel.DropOut.S01E03.1080p.BluRay.10-Bit.FLAC2.0.x265-YURASUKA.mkv (439.2 MiB)
    • Gabriel.DropOut.S01E04.1080p.BluRay.10-Bit.FLAC2.0.x265-YURASUKA.mkv (476.3 MiB)
    • Gabriel.DropOut.S01E05.1080p.BluRay.10-Bit.FLAC2.0.x265-YURASUKA.mkv (436.9 MiB)
    • Gabriel.DropOut.S01E06.1080p.BluRay.10-Bit.FLAC2.0.x265-YURASUKA.mkv (460.3 MiB)
    • Gabriel.DropOut.S01E07.1080p.BluRay.10-Bit.FLAC2.0.x265-YURASUKA.mkv (423.9 MiB)
    • Gabriel.DropOut.S01E08.1080p.BluRay.10-Bit.FLAC2.0.x265-YURASUKA.mkv (487.7 MiB)
    • Gabriel.DropOut.S01E09.1080p.BluRay.10-Bit.FLAC2.0.x265-YURASUKA.mkv (542.3 MiB)
    • Gabriel.DropOut.S01E10.1080p.BluRay.10-Bit.FLAC2.0.x265-YURASUKA.mkv (513.0 MiB)
    • Gabriel.DropOut.S01E11.1080p.BluRay.10-Bit.FLAC2.0.x265-YURASUKA.mkv (472.6 MiB)
    • Gabriel.DropOut.S01E12.1080p.BluRay.10-Bit.FLAC2.0.x265-YURASUKA.mkv (473.0 MiB)