Evangelion 1.0 You Are (Not) Alone (2007) [1080p x265 HEVC 10bit BluRay Dual Audio AAC 6.1] [Prof].mkv

Category:
Date:
2020-05-22 04:04 UTC
Submitter:
Seeders:
39
Information:
No information.
Leechers:
14
File size:
3.2 GiB
Completed:
542
Info hash:
61c77e647e748f440d4b8095909171b79807ed0d
Format : Matroska Format version : Version 4 File size : 3.17 GiB Duration : 1 h 41 min Overall bit rate : 4 498 kb/s Encoded date : UTC 2020-05-22 03:29:29 Writing application : mkvmerge v41.0.0 ('Smarra') 64-bit Writing library : libebml v1.3.9 + libmatroska v1.5.2 Video ID : 1 Format : HEVC Format/Info : High Efficiency Video Coding Format profile : Main 10@L4@Main Codec ID : V_MPEGH/ISO/HEVC Duration : 1 h 41 min Bit rate : 2 150 kb/s Width : 1 920 pixels Height : 1 080 pixels Display aspect ratio : 16:9 Frame rate mode : Constant Frame rate : 23.976 (24000/1001) FPS Color space : YUV Chroma subsampling : 4:2:0 Bit depth : 10 bits Bits/(Pixel*Frame) : 0.043 Stream size : 1.52 GiB (48%) Writing library : x265 3.3+4-g85d84b2af:[Windows][MSVC 1925][64 bit] 10bit Encoding settings : cpuid=1111039 / frame-threads=3 / numa-pools=12 / wpp / no-pmode / no-pme / no-psnr / no-ssim / log-level=2 / input-csp=1 / input-res=1920x1080 / interlace=0 / total-frames=145332 / level-idc=0 / high-tier=1 / uhd-bd=0 / ref=4 / no-allow-non-conformance / no-repeat-headers / annexb / no-aud / no-hrd / info / hash=0 / no-temporal-layers / open-gop / min-keyint=23 / keyint=250 / gop-lookahead=0 / bframes=8 / b-adapt=2 / b-pyramid / bframe-bias=0 / rc-lookahead=80 / lookahead-slices=6 / scenecut=40 / hist-scenecut=0 / radl=0 / no-splice / no-intra-refresh / ctu=64 / min-cu-size=8 / rect / no-amp / max-tu-size=32 / tu-inter-depth=1 / tu-intra-depth=1 / limit-tu=0 / rdoq-level=2 / dynamic-rd=0.00 / no-ssim-rd / signhide / no-tskip / nr-intra=0 / nr-inter=0 / no-constrained-intra / strong-intra-smoothing / max-merge=3 / limit-refs=3 / limit-modes / me=3 / subme=3 / merange=57 / temporal-mvp / no-frame-dup / no-hme / weightp / no-weightb / no-analyze-src-pics / deblock=0:0 / sao / no-sao-non-deblock / rd=4 / selective-sao=4 / no-early-skip / rskip / no-fast-intra / no-tskip-fast / no-cu-lossless / no-b-intra / no-splitrd-skip / rdpenalty=0 / psy-rd=2.00 / psy-rdoq=1.00 / no-rd-refine / no-lossless / cbqpoffs=0 / crqpoffs=0 / rc=crf / crf=18.0 / qcomp=0.60 / qpstep=4 / stats-write=0 / stats-read=0 / ipratio=1.40 / pbratio=1.30 / aq-mode=3 / aq-strength=1.00 / cutree / zone-count=0 / no-strict-cbr / qg-size=32 / no-rc-grain / qpmax=69 / qpmin=0 / no-const-vbv / sar=0 / overscan=0 / videoformat=5 / range=0 / colorprim=2 / transfer=2 / colormatrix=2 / chromaloc=0 / display-window=0 / cll=0,0 / min-luma=0 / max-luma=1023 / log2-max-poc-lsb=8 / vui-timing-info / vui-hrd-info / slices=1 / no-opt-qp-pps / no-opt-ref-list-length-pps / no-multi-pass-opt-rps / scenecut-bias=0.05 / hist-threshold=0.01 / no-opt-cu-delta-qp / no-aq-motion / no-hdr10 / no-hdr10-opt / no-dhdr10-opt / no-idr-recovery-sei / analysis-reuse-level=0 / analysis-save-reuse-level=0 / analysis-load-reuse-level=0 / scale-factor=0 / refine-intra=0 / refine-inter=0 / refine-mv=1 / refine-ctu-distortion=0 / no-limit-sao / ctu-info=0 / no-lowpass-dct / refine-analysis-type=0 / copy-pic=1 / max-ausize-factor=1.0 / no-dynamic-refine / no-single-sei / no-hevc-aq / no-svt / no-field / qp-adaptation-range=1.00 / no-scenecut-aware-qpconformance-window-offsets / right=0 / bottom=0 Default : Yes Forced : No Audio #1 ID : 8 Format : AAC LC Format/Info : Advanced Audio Codec Low Complexity Codec ID : A_AAC-2 Duration : 1 h 41 min Bit rate : 1 186 kb/s Channel(s) : 7 channels Channel layout : C L R Ls Rs Cb LFE Sampling rate : 48.0 kHz Frame rate : 46.875 FPS (1024 SPF) Compression mode : Lossy Delay relative to video : 9 ms Stream size : 857 MiB (26%) Language : Japanese Default : No Forced : No Audio #2 ID : 9 Format : AAC LC Format/Info : Advanced Audio Codec Low Complexity Codec ID : A_AAC-2 Duration : 1 h 40 min Bit rate : 1 146 kb/s Channel(s) : 7 channels Channel layout : C L R Ls Rs Cb LFE Sampling rate : 48.0 kHz Frame rate : 46.875 FPS (1024 SPF) Compression mode : Lossy Delay relative to video : 2 s 845 ms Stream size : 827 MiB (25%) Language : English Default : Yes Forced : No Text #1 ID : 2 Format : ASS Codec ID : S_TEXT/ASS Codec ID/Info : Advanced Sub Station Alpha Duration : 1 h 40 min Bit rate : 287 b/s Count of elements : 2830 Compression mode : Lossless Stream size : 211 KiB (0%) Title : R1 Americanized, Karaoke, Styled Language : English Default : No Forced : No Text #2 ID : 3 Format : ASS Codec ID : S_TEXT/ASS Codec ID/Info : Advanced Sub Station Alpha Duration : 1 h 40 min Bit rate : 107 b/s Count of elements : 1339 Compression mode : Lossless Stream size : 78.9 KiB (0%) Title : R1 Americanized, No Karaoke, Styled Language : English Default : No Forced : No Text #3 ID : 4 Format : ASS Codec ID : S_TEXT/ASS Codec ID/Info : Advanced Sub Station Alpha Duration : 1 h 40 min Bit rate : 119 b/s Count of elements : 1369 Compression mode : Lossless Stream size : 88.2 KiB (0%) Title : R1 Unamericanized, No Karaoke, Styled Language : English Default : No Forced : No Text #4 ID : 5 Format : ASS Codec ID : S_TEXT/ASS Codec ID/Info : Advanced Sub Station Alpha Duration : 1 h 39 min Bit rate : 11 b/s Count of elements : 121 Compression mode : Lossless Stream size : 8.26 KiB (0%) Title : R1 Songs + Signs Language : English Default : Yes Forced : No Text #5 ID : 6 Format : PGS Muxing mode : zlib Codec ID : S_HDMV/PGS Codec ID/Info : Picture based subtitle format used on BDs/HD-DVDs Duration : 1 h 39 min Bit rate : 37.4 kb/s Count of elements : 2718 Stream size : 26.7 MiB (1%) Title : R1 Retail Language : English Default : No Forced : No Text #6 ID : 7 Format : PGS Muxing mode : zlib Codec ID : S_HDMV/PGS Codec ID/Info : Picture based subtitle format used on BDs/HD-DVDs Duration : 1 h 38 min Bit rate : 1 330 b/s Count of elements : 109 Stream size : 962 KiB (0%) Title : R1 Retail, Songs + Signs Language : English Default : No Forced : No

File list

  • Evangelion 1.0 You Are (Not) Alone (2007) [1080p x265 HEVC 10bit BluRay Dual Audio AAC 6.1] [Prof].mkv (3.2 GiB)
Coding software´╝ÜStaxRip
Prof, can you please do Fate Stay Night Unlimited Blade works next <3 ?
Is you going to do Hunter x Hunter Vol.7? also are you gonna do JoJo: Diamond is Unbreakable?
Love this! I should really start this, but I prefer watching all movies in one go. Same with Fate Heaven's Feel. Code Geass Movie Trilogy + Resurrection are out. I should start that!!

Prof (uploader)

User
@DGod720 I'm going to redo all of hunter x hunter at some point and then all I'll do vol.7, jojo I don't have plans on doing any time soon