Date A Live [Season 1-3+OVAs+Extra][Compete][Dual-Audio][BD][5.1][HEVC]{V2}

Category:
Date:
2020-05-15 11:55 UTC
Submitter:
Seeders:
7
Information:
No information.
Leechers:
2
File size:
14.5 GiB
Completed:
1590
Info hash:
63de9b8691d5789804fb63247b087aab185695a9
Remove The Previous Torrent Don't Forget To Seed Video & Audio Source https://nyaa.si/view/1244897 & https://nyaa.si/view/1245144 Video & Audio Source https://nyaa.si/view/1245633 Video ID : 1 Format : HEVC Format/Info : High Efficiency Video Coding Format profile : Main 10@L4@Main Codec ID : V_MPEGH/ISO/HEVC Duration : 23 min 42 s Bit rate : 1 768 kb/s Width : 1 920 pixels Height : 1 080 pixels Display aspect ratio : 16:9 Frame rate mode : Constant Frame rate : 23.976 (24000/1001) FPS Color space : YUV Chroma subsampling : 4:2:0 Bit depth : 10 bits Bits/(Pixel*Frame) : 0.036 Stream size : 300 MiB (84%) Writing library : x265 3.3+2-gbe2d82093:[Windows][GCC 9.2.0][64 bit] 10bit Encoding settings : cpuid=1049583 / frame-threads=3 / numa-pools=8 / wpp / no-pmode / no-pme / no-psnr / no-ssim / log-level=2 / input-csp=1 / input-res=1920x1080 / interlace=0 / total-frames=34096 / level-idc=0 / high-tier=1 / uhd-bd=0 / ref=4 / no-allow-non-conformance / no-repeat-headers / annexb / no-aud / no-hrd / info / hash=0 / no-temporal-layers / open-gop / min-keyint=23 / keyint=250 / gop-lookahead=0 / bframes=4 / b-adapt=2 / b-pyramid / bframe-bias=0 / rc-lookahead=25 / lookahead-slices=4 / scenecut=40 / hist-scenecut=0 / radl=0 / no-splice / no-intra-refresh / ctu=64 / min-cu-size=8 / rect / no-amp / max-tu-size=32 / tu-inter-depth=1 / tu-intra-depth=1 / limit-tu=0 / rdoq-level=2 / dynamic-rd=0.00 / no-ssim-rd / signhide / no-tskip / nr-intra=0 / nr-inter=0 / no-constrained-intra / strong-intra-smoothing / max-merge=3 / limit-refs=3 / limit-modes / me=3 / subme=3 / merange=57 / temporal-mvp / no-frame-dup / no-hme / weightp / no-weightb / no-analyze-src-pics / deblock=0:0 / sao / no-sao-non-deblock / rd=4 / selective-sao=4 / no-early-skip / rskip / no-fast-intra / no-tskip-fast / no-cu-lossless / no-b-intra / no-splitrd-skip / rdpenalty=0 / psy-rd=1.50 / psy-rdoq=1.00 / no-rd-refine / no-lossless / cbqpoffs=0 / crqpoffs=0 / rc=crf / crf=20.0 / qcomp=0.60 / qpstep=4 / stats-write=0 / stats-read=0 / ipratio=1.40 / pbratio=1.30 / aq-mode=3 / aq-strength=0.80 / cutree / zone-count=0 / no-strict-cbr / qg-size=32 / no-rc-grain / qpmax=69 / qpmin=0 / no-const-vbv / sar=0 / overscan=0 / videoformat=5 / range=0 / colorprim=2 / transfer=2 / colormatrix=2 / chromaloc=0 / display-window=0 / cll=0,0 / min-luma=0 / max-luma=1023 / log2-max-poc-lsb=8 / vui-timing-info / vui-hrd-info / slices=1 / no-opt-qp-pps / no-opt-ref-list-length-pps / no-multi-pass-opt-rps / scenecut-bias=0.05 / hist-threshold=0.01 / no-opt-cu-delta-qp / no-aq-motion / no-hdr10 / no-hdr10-opt / no-dhdr10-opt / no-idr-recovery-sei / analysis-reuse-level=0 / analysis-save-reuse-level=0 / analysis-load-reuse-level=0 / scale-factor=0 / refine-intra=0 / refine-inter=0 / refine-mv=1 / refine-ctu-distortion=0 / no-limit-sao / ctu-info=0 / no-lowpass-dct / refine-analysis-type=0 / copy-pic=1 / max-ausize-factor=1.0 / no-dynamic-refine / no-single-sei / no-hevc-aq / no-svt / no-field / qp-adaptation-range=1.00 / no-scenecut-aware-qpconformance-window-offsets / right=0 / bottom=0 Default : Yes Forced : No Audio #1 ID : 6 Format : Opus Codec ID : A_OPUS Duration : 23 min 42 s Bit rate : 218 kb/s Channel(s) : 6 channels Channel layout : L R C Ls Rs Cb LFE Sampling rate : 48.0 kHz Frame rate : 50.001 FPS (960 SPF) Compression mode : Lossy Stream size : 36.9 MiB (10%) Language : English Default : Yes Forced : No Audio #2 ID : 7 Format : Opus Codec ID : A_OPUS Duration : 23 min 42 s Bit rate : 90.2 kb/s Channel(s) : 2 channels Channel layout : L R Sampling rate : 48.0 kHz Frame rate : 50.001 FPS (960 SPF) Compression mode : Lossy Stream size : 15.3 MiB (4%) Language : Japanese Default : No Forced : No Text #1 ID : 2 Format : PGS Muxing mode : zlib Codec ID : S_HDMV/PGS Codec ID/Info : Picture based subtitle format used on BDs/HD-DVDs Duration : 23 min 0 s Bit rate : 15.2 kb/s Count of elements : 859 Stream size : 2.51 MiB (1%) Title : Full Subs Language : English Default : Yes Forced : No Text #2 ID : 3 Format : PGS Muxing mode : zlib Codec ID : S_HDMV/PGS Codec ID/Info : Picture based subtitle format used on BDs/HD-DVDs Duration : 22 min 26 s Bit rate : 1 272 b/s Count of elements : 56 Stream size : 209 KiB (0%) Title : Signs & Songs Language : English Default : No Forced : No Text #3 ID : 4 Format : ASS Codec ID : S_TEXT/ASS Codec ID/Info : Advanced Sub Station Alpha Duration : 23 min 1 s Bit rate : 3 581 b/s Count of elements : 1008 Compression mode : Lossless Stream size : 604 KiB (0%) Title : Full[GSK_kun] Language : Japanese Default : No Forced : No Text #4 ID : 5 Format : ASS Codec ID : S_TEXT/ASS Codec ID/Info : Advanced Sub Station Alpha Duration : 22 min 26 s Bit rate : 3 551 b/s Count of elements : 648 Compression mode : Lossless Stream size : 584 KiB (0%) Title : Signs and songs[GSK_kun] Language : English Default : No Forced : Yes Menu 00:00:00.000 : :Part A 00:12:39.008 : en:Part B 00:22:09.745 : en:Ending 00:23:35.998 : en:Preview

File list

  • Date A Live
    • Date a Live I
      • Extra
        • NCED - 01.mkv (25.5 MiB)
        • NCED - 02.mkv (9.9 MiB)
        • NCED - 03.mkv (31.0 MiB)
        • NCED - 04.mkv (13.7 MiB)
        • NCED - 05.mkv (32.7 MiB)
        • NCED - 06.mkv (21.3 MiB)
        • NCED - 07.mkv (11.4 MiB)
        • NCED - 08.mkv (11.3 MiB)
        • NCED - 09.mkv (11.4 MiB)
        • NCED - 10.mkv (28.9 MiB)
        • NCOP - 01.mkv (51.2 MiB)
      • Date A Live - 01 - April 10.mkv (532.5 MiB)
      • Date A Live - 02 - Close Re-encounter.mkv (502.1 MiB)
      • Date A Live - 03 - Sword That Splits the Sky.mkv (431.4 MiB)
      • Date A Live - 04 - Unhappy Rain.mkv (449.6 MiB)
      • Date A Live - 05 - The Freezing Ground.mkv (402.2 MiB)
      • Date A Live - 06 - Hot Springs of Love.mkv (398.5 MiB)
      • Date A Live - 07 - The Visitors.mkv (403.1 MiB)
      • Date A Live - 08 - Triple Frenzy.mkv (407.7 MiB)
      • Date A Live - 09 - Raging Nightmare.mkv (404.8 MiB)
      • Date A Live - 10 - Spirit Of Fire (Ifrit).mkv (401.8 MiB)
      • Date A Live - 11 - Countdown.mkv (420.2 MiB)
      • Date A Live - 12 - Things You Can't Give Up.mkv (428.7 MiB)
      • Date A Live - 13 -OVA - Date to Date.mkv (406.4 MiB)
    • Date a Live II
      • Extras
        • NCED - 01.mkv (53.3 MiB)
        • NCOP-01.mkv (51.8 MiB)
        • NCOP-02.mkv (51.4 MiB)
        • NCOP-03.mkv (52.4 MiB)
        • NCOP-04.mkv (52.3 MiB)
      • Date.A.Live.S02E01.Daily Life.mkv (393.0 MiB)
      • Date.A.Live.S02E02.Children of the Storm.mkv (405.2 MiB)
      • Date.A.Live.S02E03.Two Wishes.mkv (408.3 MiB)
      • Date.A.Live.S02E04.Manifestation.mkv (400.2 MiB)
      • Date.A.Live.S02E05.Diva.mkv (412.5 MiB)
      • Date.A.Live.S02E06.Girls Music.mkv (410.7 MiB)
      • Date.A.Live.S02E07.The Army-Destroying Songstress (Gabriel).mkv (407.9 MiB)
      • Date.A.Live.S02E08.The Promise to Keep.mkv (408.8 MiB)
      • Date.A.Live.S02E09.The Truth About Miku.mkv (463.2 MiB)
      • Date.A.Live.S02E10.Inversion.mkv (405.6 MiB)
      • Date.A.Live.S02E11.Kurumi Star Festival.mkv (513.4 MiB)
    • Date a Live III
      • Extras
        • NCED-01.mkv (11.9 MiB)
        • NCED-02.mkv (11.6 MiB)
        • NCED-03.mkv (11.9 MiB)
        • NCED-04.mkv (12.2 MiB)
        • NCED-05.mkv (12.1 MiB)
        • NCOP-01.mkv (38.0 MiB)
        • NCOP-02.mkv (38.1 MiB)
        • NCOP-03.mkv (37.9 MiB)
        • NCOP-04.mkv (42.3 MiB)
        • NCOP-05.mkv (42.2 MiB)
      • Date A Live III_-_01 The Seventh Spirit.mkv (356.9 MiB)
      • Date A Live III_-_02 Can You Find Me.mkv (273.0 MiB)
      • Date A Live III_-_03 You're Natsumi.mkv (247.2 MiB)
      • Date A Live III_-_04 Transformation.mkv (279.7 MiB)
      • Date A Live III_-_05 Despair Comes Crashing Down.mkv (336.0 MiB)
      • Date A Live III_-_06 Crossroads.mkv (380.7 MiB)
      • Date A Live III_-_07 The Power Given.mkv (361.4 MiB)
      • Date A Live III_-_08 Demon King of Descending Darkness.mkv (334.6 MiB)
      • Date A Live III_-_09 Tengu City, Five Years Ago.mkv (351.0 MiB)
      • Date A Live III_-_10 Another World, Another Girl.mkv (264.5 MiB)
      • Date A Live III_-_11 Angel of the Starry Night.mkv (329.8 MiB)
      • Date A Live III_-_12 Make Shido Itsuka Swoon.mkv (343.4 MiB)
if it is Dual Audio, then DAL I and II don't have director's cut
Here again you took other encoders encode and encoded the audio as opus and post it under you own tag
Thanks for awesome upload SEED PLEASE
More Seed please 🥺