[TanteiOuji] Shigatsu wa Kimi no Uso - OAB 「MOMENTS」 (BD 1920x1080p AVC FLAC AAC)

Category:
Date:
2020-05-12 14:38 UTC
Submitter:
Seeders:
0
Information:
No information.
Leechers:
1
File size:
1.7 GiB
Completed:
127
Info hash:
6b6fb32adfcc5e46fe2b85a22503596d11b08c0d
# [TanteiOuji] Shigatsu wa Kimi no Uso - OAB 「MOMENTS」 (BD 1920x1080p AVC FLAC AAC) **Video Source:** [UCCUSS] **Subtitle:** Mori - Retimed, Added OP & ED **Media Info:** **Video** ID : 1 Format : AVC Format/Info : Advanced Video Codec Format profile : High@L4.1 Format settings : CABAC / 4 Ref Frames Format settings, CABAC : Yes Format settings, Reference frames : 4 frames Codec ID : V_MPEG4/ISO/AVC Duration : 23 min 5 s Bit rate : 8 648 kb/s Width : 1 920 pixels Height : 1 080 pixels Display aspect ratio : 16:9 Frame rate mode : Constant Frame rate : 23.976 (24000/1001) FPS Color space : YUV Chroma subsampling : 4:2:0 Bit depth : 8 bits Scan type : Progressive Bits/(Pixel*Frame) : 0.174 Stream size : 1.40 GiB (84%) Title : Shigatsu wa Kimi no Uso -「MOMENTS」 Writing library : x264 core 157 r2969 d4099dd Encoding settings : cabac=1 / ref=4 / deblock=1:-1:-1 / analyse=0x3:0x133 / me=umh / subme=9 / psy=1 / psy_rd=0.85:0.00 / mixed_ref=1 / me_range=32 / chroma_me=1 / trellis=2 / 8x8dct=1 / cqm=0 / deadzone=21,11 / fast_pskip=1 / chroma_qp_offset=-4 / threads=4 / lookahead_threads=1 / sliced_threads=0 / nr=0 / decimate=0 / interlaced=0 / bluray_compat=0 / constrained_intra=0 / bframes=5 / b_pyramid=2 / b_adapt=2 / b_bias=0 / direct=2 / weightb=1 / open_gop=0 / weightp=2 / keyint=230 / keyint_min=23 / scenecut=40 / intra_refresh=0 / rc_lookahead=50 / rc=crf / mbtree=1 / crf=15.0 / qcomp=0.70 / qpmin=10 / qpmax=42 / qpstep=4 / vbv_maxrate=50000 / vbv_bufsize=50000 / crf_max=0.0 / nal_hrd=none / filler=0 / ip_ratio=1.40 / aq=1:0.90 Language : Japanese Default : Yes Forced : No **Audio #1** ID : 2 Format : FLAC Format/Info : Free Lossless Audio Codec Codec ID : A_FLAC Duration : 23 min 5 s Bit rate mode : Variable Bit rate : 1 416 kb/s Channel(s) : 2 channels Channel layout : L R Sampling rate : 48.0 kHz Frame rate : 11.719 FPS (4096 SPF) Bit depth : 24 bits Compression mode : Lossless Stream size : 234 MiB (14%) Title : Main Audio Writing library : libFLAC 1.3.2 (UTC 2017-01-01) Language : Japanese Default : Yes Forced : Yes **Audio #2** ID : 3 Format : AAC LC Format/Info : Advanced Audio Codec Low Complexity Codec ID : A_AAC-2 Duration : 23 min 5 s Bit rate : 256 kb/s Channel(s) : 2 channels Channel layout : L R Sampling rate : 48.0 kHz Frame rate : 46.875 FPS (1024 SPF) Compression mode : Lossy Delay relative to video : 9 ms Stream size : 42.2 MiB (2%) Title : Audio Commentary - Cast Language : Japanese Default : No Forced : No **Text** ID : 4 Format : ASS Codec ID : S_TEXT/ASS Codec ID/Info : Advanced Sub Station Alpha Duration : 22 min 46 s Bit rate : 7 488 b/s Count of elements : 5407 Compression mode : Lossless Stream size : 1.22 MiB (0%) Title : Full Language : English Default : Yes Forced : No

File list

  • [TanteiOuji] Shigatsu wa Kimi no Uso - OAB 「MOMENTS」 (BD 1920x1080p AVC FLAC AAC).mkv (1.7 GiB)
hola queria preguntaste si al final pudiste descargar los episodios de d gray man de esta entrada: https://nyaa.si/view/1076004 gracias

Tanteiouji (uploader)

User
@jonathan28k Nah I kept it on download for nearly 6 months but none of the episodes were downloaded fully so I gave up and deleted the files.
@Tanteiouji ok, que lastima :/
@Tanteiouji , please seed source , I want to download file
please seed source , I want to download file
@Tanteiouji , please seed source , I want to download file

Tanteiouji (uploader)

User
@Hachiman12a1 Sorry some of my files got deleted due to a HDD failure. So this torrent file got deleted. If you want I can create a drive link with the same file.

Tanteiouji (uploader)

User
DL: https://mega.nz/file/iMp2hARD#VR9VbXkmGS7GGYt-tYi1vhL5ObMaoavs_vIdZq6AYm8