[60FPS] Who Am I? (Wo shi shei) (1998) [HDTVRip 720p, AC3 5.1ch] [Russian Dub] {a Jackie Chan Film}

Category:
Date:
2020-05-10 04:42 UTC
Submitter:
Anonymous
Seeders:
1
Information:
Leechers:
3
File size:
5.5 GiB
Completed:
21
Info hash:
ce92e356ce699c1ea45ae5928a5705cfcae2b743
![](http://lostpic.net/images/5513dbd8e11914ebb6c813648843f1f4.jpg) ___ __Duration:__ 1h 47m __Codec:__ MPEG4/ISO/AVC/H.264 __Format:__ MKV __Video:__ 1280 x 720 (16:9), 6854 kbps, 60,000 fps, ( 0.124bpp) __Аudio 1:__ AC-3, 48.0 KHz, 6 ch, 384 Kbps | Russian ___ __Mediainfo:__ ``` Общее Уникальный идентификатор : 213415230288110479675907148467138986623 (0xA08E473C0C68B105824CB8431668027F) Полное имя : E:\Kto.Ya.(1998).HDTVRip.720p.(60 Fps).mkv Формат : Matroska Версия формата : Version 4 / Version 2 Размер файла : 5,46 Гбайт Продолжительность : 1 ч. 47 м. Общий поток : 7242 Кбит/сек Название фильма : Кто я? / Ngo si seoi (1998) HDTVRip 720p (60 Fps) Дата кодирования : UTC 2017-06-26 10:04:27 Программа кодирования : mkvmerge v9.1.0 ('Little Earthquakes') 64bit Библиотека кодирования : libebml v1.3.3 + libmatroska v1.4.4 Видео Идентификатор : 1 Формат : AVC Формат/Информация : Advanced Video Codec Профиль формата : High@L4.1 Параметр CABAC формата : Да Параметр ReFrames формата : 4 кадра Идентификатор кодека : V_MPEG4/ISO/AVC Продолжительность : 1 ч. 47 м. Битрейт : 6854 Кбит/сек Ширина : 1280 пикселей Высота : 720 пикселей Соотношение сторон : 16:9 Режим частоты кадров : Постоянный Частота кадров : 60,000 кадров/сек Цветовое пространство : YUV Субдискретизация насыщенности : 4:2:0 Битовая глубина : 8 бит Тип развёртки : Прогрессивная Бит/(Пиксели*Кадры) : 0.124 Размер потока : 5,16 Гбайт (95%) Заголовок : slaventi-69 ( R.G. HD-Films | 60 fps ) Библиотека кодирования : x264 core 130 r2273 b3065e6 Настройки программы : cabac=1 / ref=4 / deblock=1:0:0 / analyse=0x3:0x113 / me=umh / subme=9 / psy=1 / psy_rd=1.00:0.00 / mixed_ref=1 / me_range=24 / chroma_me=1 / trellis=2 / 8x8dct=1 / cqm=0 / deadzone=21,11 / fast_pskip=1 / chroma_qp_offset=-2 / threads=10 / lookahead_threads=1 / sliced_threads=0 / nr=0 / decimate=1 / interlaced=0 / bluray_compat=0 / constrained_intra=0 / bframes=4 / b_pyramid=2 / b_adapt=2 / b_bias=0 / direct=3 / weightb=1 / open_gop=0 / weightp=2 / keyint=250 / keyint_min=25 / scenecut=40 / intra_refresh=0 / rc_lookahead=50 / rc=crf / mbtree=1 / crf=16.0 / qcomp=0.60 / qpmin=0 / qpmax=69 / qpstep=4 / ip_ratio=1.40 / aq=1:1.00 Язык : Chinese Default : Да Forced : Нет Аудио Идентификатор : 2 Формат : AC-3 Формат/Информация : Audio Coding 3 Параметр Endianness формата : Big Идентификатор кодека : A_AC3 Продолжительность : 1 ч. 47 м. Вид битрейта : Постоянный Битрейт : 384 Кбит/сек Каналы : 6 каналов Расположение каналов : Front: L C R, Side: L R, LFE Частота : 48,0 КГц Частота кадров : 31,250 кадров/сек (1536 spf) Битовая глубина : 16 бит Метод сжатия : С потерями Размер потока : 296 Мбайт (5%) Заголовок : DUB Язык : Russian ServiceKind/String : Complete Main Default : Да Forced : Нет

File list

  • Kto.Ya.(1998).HDTVRip.720p.(60 Fps).mkv (5.5 GiB)