Made.in.Abyss.Journeys.Dawn.2019.JAPANESE.1080p.BluRay.x264.DTS-FGT

Category:
Date:
2020-05-09 02:11 UTC
Submitter:
Anonymous
Seeders:
0
Information:
No information.
Leechers:
0
File size:
10.8 GiB
Completed:
816
Info hash:
6b04bb0080355aa48cdcffdcf627eded77924451
Enjoy the high quality and seed? Oh forgot to include this. Some o you prolly want it: Video ID : 1 Format : AVC Format/Info : Advanced Video Codec Format profile : High@L4.1 Format settings : CABAC / 4 Ref Frames Format settings, CABAC : Yes Format settings, Reference frames : 4 frames Codec ID : V_MPEG4/ISO/AVC Duration : 1 h 58 min Bit rate : 11.5 Mb/s Width : 1 920 pixels Height : 1 080 pixels Display aspect ratio : 16:9 Frame rate mode : Constant Frame rate : 23.976 (24000/1001) FPS Color space : YUV Chroma subsampling : 4:2:0 Bit depth : 8 bits Scan type : Progressive Bits/(Pixel*Frame) : 0.231 Stream size : 9.54 GiB (88%) Title : Made.in.Abyss.Journeys.Dawn.2019.JAPANESE.1080p.BluRay.x264.DTS-FGT Writing library : x264 core 148 r2795M aaa9aa8 Encoding settings : cabac=1 / ref=4 / deblock=1:1:1 / analyse=0x3:0x113 / me=umh / subme=8 / psy=1 / psy_rd=0.50:0.00 / mixed_ref=1 / me_range=32 / chroma_me=1 / trellis=2 / 8x8dct=1 / cqm=0 / deadzone=21,11 / fast_pskip=1 / chroma_qp_offset=-2 / threads=34 / lookahead_threads=3 / sliced_threads=0 / nr=0 / decimate=1 / interlaced=0 / bluray_compat=0 / constrained_intra=0 / bframes=3 / b_pyramid=2 / b_adapt=1 / b_bias=0 / direct=3 / weightb=1 / open_gop=0 / weightp=2 / keyint=240 / keyint_min=24 / scenecut=40 / intra_refresh=0 / rc_lookahead=50 / rc=2pass / mbtree=1 / bitrate=11500 / ratetol=1.0 / qcomp=0.60 / qpmin=0 / qpmax=69 / qpstep=4 / cplxblur=20.0 / qblur=0.5 / vbv_maxrate=31250 / vbv_bufsize=31250 / nal_hrd=none / filler=0 / ip_ratio=1.40 / aq=3:0.60 Language : Japanese Default : Yes Forced : No Audio ID : 2 Format : DTS Format/Info : Digital Theater Systems Codec ID : A_DTS Duration : 1 h 58 min Bit rate mode : Constant Bit rate : 1 509 kb/s Channel(s) : 6 channels Channel layout : C L R Ls Rs LFE Sampling rate : 48.0 kHz Frame rate : 93.750 FPS (512 SPF) Bit depth : 16 bits Compression mode : Lossy Stream size : 1.25 GiB (12%) Title : Made.in.Abyss.Journeys.Dawn.2019.JAPANESE.1080p.BluRay.x264.DTS-FGT Language : Japanese Default : Yes Forced : No Text ID : 3 Format : UTF-8 Codec ID : S_TEXT/UTF8 Codec ID/Info : UTF-8 Plain Text Duration : 1 h 57 min Bit rate : 77 b/s Count of elements : 1831 Stream size : 66.6 KiB (0%) Language : English Default : Yes Forced : No Menu 00:00:00.000 : en:Chapter 01 00:00:21.021 : en:Chapter 02 00:04:01.992 : en:Chapter 03 00:18:44.957 : en:Chapter 04 00:33:35.055 : en:Chapter 05 00:50:03.083 : en:Chapter 06 01:01:39.029 : en:Chapter 07 01:13:08.301 : en:Chapter 08 01:26:47.744 : en:Chapter 09 01:41:21.909 : en:Chapter 10 01:56:17.929 : en:Chapter 11 01:57:10.523 : en:Chapter 12 01:58:31.062 : en:Chapter 13

File list

were where the subtitles sourced from? and was the other movie going to be done?