[RN-FDB] Hello World ( 2019 ) [BD 720p AVC 10 Bit] [AC3 6.0Ch]

Category:
Date:
2020-04-16 09:53 UTC
Submitter:
Seeders:
1
Information:
No information.
Leechers:
1
File size:
1.3 GiB
Completed:
161
Info hash:
33cd871c4678f5eab41bd1803f21a2ca4c33595b
## [Media Info] Video ID : 1 Format : AVC Format/Info : Advanced Video Codec Format profile : High 10@L4.1 Format settings, CABAC : Yes Format settings, RefFrames : 6 frames Codec ID : V_MPEG4/ISO/AVC Duration : 1 h 37 min Bit rate : 1 205 kb/s Width : 1 280 pixels Height : 720 pixels Display aspect ratio : 16:9 Frame rate mode : Constant Frame rate : 23.976 (24000/1001) FPS Color space : YUV Chroma subsampling : 4:2:0 Bit depth : 10 bits Scan type : Progressive Bits/(Pixel*Frame) : 0.055 Stream size : 842 MiB (64%) Writing library : x264 core 157 r2935 545de2f Default : Yes Forced : No Color range : Limited Color primaries : BT.709 Transfer characteristics : BT.709 Matrix coefficients : BT.709 DURATION : 01:37:43.363000000 Audio ID : 2 Format : AC-3 Format/Info : Audio Coding 3 Format settings, Endianness : Big Codec ID : A_AC3 Duration : 1 h 37 min Bit rate mode : Constant Bit rate : 640 kb/s Channel(s) : 6 channels Channel positions : Front: L C R, Side: L R, LFE Sampling rate : 48.0 kHz Frame rate : 31.250 FPS (1536 SPF) Bit depth : 16 bits Compression mode : Lossy Delay relative to video : -5 ms Stream size : 447 MiB (34%) Title : Surround Language : Japanese Service kind : Complete Main Default : Yes Forced : No DURATION : 01:37:43.328000000

File list

  • [RN-FDB] Hello World ( 2019 ) [BD 720p AVC 10 Bit] [AC3 6.0Ch].rar (1.3 GiB)