[EL] Konosuba S1 - Kono Subarashii Sekai ni Shukufuku o! (1080p DTS-HD Ger / Jap Dub)

Category:
Date:
2020-04-13 19:08 UTC
Submitter:
Seeders:
1
Information:
No information.
Leechers:
1
File size:
39.4 GiB
Completed:
24
Info hash:
7f9a9805fb117a479ac4a2af06bcb43cf194a17f
# Konosuba S1 - Kono Subarashii Sekai ni Shukufuku o! ## Allgemein Typ : TV-Serie Anzahl Episoden : 10 Publisher : Animoon Anilist: https://anilist.co/anime/21202/Kono-Subarashii-Sekai-ni-Shukufuku-wo/ ## NFO ``` File Name: : [EL] Kono Subarashii Sekai ni Shukufuku o! - 01 Overall bit rate mode : Variable Overall bit rate : 23.5 Mb/s Writing library : libmakemkv v1.14.5 (1.3.5/1.4.7) win(x64-release) Video #1 Format : AVC Format/Info : Advanced Video Codec Format profile : High@L4.1 Format settings : CABAC / 4 Ref Frames Format settings, Reference Frames: 4 frames Codec ID : V_MPEG4/ISO/AVC Bit rate mode : Variable Bit rate : 19.8 Mb/s Maximum bit rate : 35.0 Mb/s Width : 1 920 pixels Height : 1 080 pixels Display aspect ratio : 16:9 Frame rate mode : Constant (CFR) Frame rate : 23.976 (24000/1001) FPS Bit depth : 8 bits Compression mode : Compression : Color space : YUV Color range : Limited Stream size : 3.49 GiB (84%) Language : English Forced : No Audio #2 Format : DTS XLL Format/Info : Digital Theater Systems Format/Commercial name : DTS-HD Master Audio Format settings : Codec ID : A_DTS Bit rate mode : Variable Bit rate : 2 060 kb/s Maximum bit rate : Channel(s) : 2 channels Channel layout : L R Sampling rate : 48.0 kHz Frame rate : 93.750 FPS (512 SPF) Bit depth : 24 bits Compression mode : Lossless Compression : Stream size : 371 MiB (9%) Language : German Default : Yes Forced : No Audio #2 Format : DTS XLL Format/Info : Digital Theater Systems Format/Commercial name : DTS-HD Master Audio Format settings : Codec ID : A_DTS Bit rate mode : Variable Bit rate : 1 571 kb/s Maximum bit rate : Channel(s) : 2 channels Channel layout : L R Sampling rate : 48.0 kHz Frame rate : 93.750 FPS (512 SPF) Bit depth : 16 bits Compression mode : Lossless Compression : Stream size : 283 MiB (7%) Language : Japanese Default : No Forced : No Text #1 Format : PGS Format/Info : Codec ID : S_HDMV/PGS Codec ID/Info : Picture based subtitle format used on BDs/HD-DVDs Bit rate mode : Bit rate : 47.9 kb/s Language : German Default : No Forced : No ```

File list

  • [EL] Kono Subarashii Sekai ni Shukufuku o! (1920x1080 DTS-HD Jap-Ger-Dub)
    • [EL] Kono Subarashii Sekai ni Shukufuku o! (1920x1080 DTS-HD Jap-Ger-Dub).nfo (3.6 KiB)
    • [EL] Kono Subarashii Sekai ni Shukufuku o! - 01.mkv (4.1 GiB)
    • [EL] Kono Subarashii Sekai ni Shukufuku o! - 02.mkv (3.9 GiB)
    • [EL] Kono Subarashii Sekai ni Shukufuku o! - 03.mkv (3.9 GiB)
    • [EL] Kono Subarashii Sekai ni Shukufuku o! - 04.mkv (3.9 GiB)
    • [EL] Kono Subarashii Sekai ni Shukufuku o! - 05.mkv (3.9 GiB)
    • [EL] Kono Subarashii Sekai ni Shukufuku o! - 06.mkv (3.9 GiB)
    • [EL] Kono Subarashii Sekai ni Shukufuku o! - 07.mkv (3.9 GiB)
    • [EL] Kono Subarashii Sekai ni Shukufuku o! - 08.mkv (3.9 GiB)
    • [EL] Kono Subarashii Sekai ni Shukufuku o! - 09.mkv (3.9 GiB)
    • [EL] Kono Subarashii Sekai ni Shukufuku o! - 10.mkv (4.1 GiB)
Moinsen, hättest du vielleicht bock mit uns zusammen zu kooperieren? Wir haben demnächst auch vor RAWs zu Releasen, da wäre eine zusätzliche Person schon nice. Wir haben auch diversen zugriff auf Private Tracker und sind daher auch nicht mittellos. Kannst bei uns einfach auf den [Discord](https://discord.gg/pPkjhTb) joinen, falls du bock hast ^^