[Tess] Cutie Honey 1973 (Cutey Honey) [DVD 720x480 AVC AC3]

Category:
Date:
2020-04-12 22:47 UTC
Submitter:
Seeders:
15
Information:
No information.
Leechers:
3
File size:
14.6 GiB
Completed:
1060
Info hash:
ac1f4d9c4dcc8e6ad696b4a41cc150c24cb98681
Source: R1 DVD Subs: R1 Vobsub Uploader Notes: This source was an interesting one while their are multiple encodes of this show I've failed to find one that addresses a massive issue with the DVDs. Despite the DVDs being soft-telecined they still have, what I presume to be, residual combing artifacts every few frames making them virtually unwatchable. I ended up anti-aliasing the video with santiag with these settings: 'strh=1, strv=0, type="nnedi3", nns=4, nsize=6, opencl=True, device=0.' Beyond that the source has not been denoised or filtered in any way. Below are some screenshots comparing the source DVDs with this encode. | Source | Encode | | :-: | :-: | [![jC3urZ.th.png](https://i1.lensdump.com/i/jC3urZ.th.png)](https://i1.lensdump.com/i/jC3urZ.png)|[![jC3nGH.th.png](https://i1.lensdump.com/i/jC3nGH.th.png)](https://i1.lensdump.com/i/jC3nGH.png) [![jC3D3P.th.png](https://i.lensdump.com/i/jC3D3P.th.png)](https://i.lensdump.com/i/jC3D3P.png)|[![jC3evx.th.png](https://i1.lensdump.com/i/jC3evx.th.png)](https://i1.lensdump.com/i/jC3evx.png) [![jC3NNm.th.png](https://i.lensdump.com/i/jC3NNm.th.png)](https://i.lensdump.com/i/jC3NNm.png)|[![jC3Lk1.th.png](https://i.lensdump.com/i/jC3Lk1.th.png)](https://i.lensdump.com/i/jC3Lk1.png) [![jC3fii.th.png](https://i1.lensdump.com/i/jC3fii.th.png)](https://i1.lensdump.com/i/jC3fii.png)|[![jC3MHc.th.png](https://i.lensdump.com/i/jC3MHc.th.png)](https://i.lensdump.com/i/jC3MHc.png) [![jC3F9o.th.png](https://i1.lensdump.com/i/jC3F9o.th.png)](https://i1.lensdump.com/i/jC3F9o.png)|[![jC3YXK.th.png](https://i1.lensdump.com/i/jC3YXK.th.png)](https://i1.lensdump.com/i/jC3YXK.png) Mediainfo: >General >Unique ID : 218645881154692280203203735001296230069 (0xA47DAA3BB046D9AC4D006EBBBBDF56B5) >Complete name : [Tess] Cutie Honey - 01 [DVD 720x480 AVC AC3][08400C69].mkv >Format : Matroska >Format version : Version 4 >File size : 583 MiB >Duration : 24 min 54 s >Overall bit rate : 3 274 kb/s >Encoded date : UTC 2020-04-12 16:30:42 >Writing application : mkvmerge v45.0.0 ('Heaven in Pennies') 64-bit >Writing library : libebml v1.3.10 + libmatroska v1.5.2 > >Video >ID : 1 >Format : AVC >Format/Info : Advanced Video Codec >Format profile : High 10@L5.1 >Format settings : CABAC / 12 Ref Frames >Format settings, CABAC : Yes >Format settings, Reference frames : 12 frames >Codec ID : V_MPEG4/ISO/AVC >Duration : 24 min 54 s >Bit rate : 3 078 kb/s >Width : 720 pixels >Height : 480 pixels >Display aspect ratio : 4:3 >Frame rate mode : Constant >Frame rate : 23.976 (24000/1001) FPS >Color space : YUV >Chroma subsampling : 4:2:0 >Bit depth : 10 bits >Scan type : Progressive >Bits/(Pixel*Frame) : 0.371 >Stream size : 548 MiB (94%) >Writing library : x264 core 159 r2999 296494a >Encoding settings : cabac=1 / ref=12 / deblock=1:-2:-2 / analyse=0x3:0x133 / me=umh / subme=11 / psy=1 / psy_rd=1.00:0.00 / mixed_ref=1 / me_range=32 / chroma_me=1 / trellis=2 / 8x8dct=1 / cqm=0 / deadzone=21,11 / fast_pskip=0 / chroma_qp_offset=-2 / threads=15 / lookahead_threads=6 / sliced_threads=0 / slices=4 / nr=0 / decimate=1 / interlaced=0 / bluray_compat=0 / constrained_intra=0 / bframes=8 / b_pyramid=2 / b_adapt=2 / b_bias=0 / direct=3 / weightb=1 / open_gop=0 / weightp=2 / keyint=250 / keyint_min=23 / scenecut=40 / intra_refresh=0 / rc_lookahead=250 / rc=crf / mbtree=1 / crf=15.0 / qcomp=0.60 / qpmin=0 / qpmax=69 / qpstep=4 / vbv_maxrate=720000 / vbv_bufsize=720000 / crf_max=0.0 / nal_hrd=none / filler=0 / ip_ratio=1.40 / aq=3:0.80 >Default : Yes >Forced : No > >Audio >ID : 2 >Format : AC-3 >Format/Info : Audio Coding 3 >Commercial name : Dolby Digital >Codec ID : A_AC3 >Duration : 24 min 54 s >Bit rate mode : Constant >Bit rate : 192 kb/s >Channel(s) : 2 channels >Channel layout : L R >Sampling rate : 48.0 kHz >Frame rate : 31.250 FPS (1536 SPF) >Compression mode : Lossy >Stream size : 34.2 MiB (6%) >Language : Japanese >Service kind : Complete Main >Default : Yes >Forced : No > >Text >ID : 3 >Format : VobSub >Muxing mode : zlib >Codec ID : S_VOBSUB >Codec ID/Info : Picture based subtitle format used on DVDs >Duration : 24 min 49 s >Bit rate : 4 462 b/s >Count of elements : 333 >Stream size : 812 KiB (0%) >Language : English >Default : Yes >Forced : No > >Menu >00:00:00.000 : en:Chapter 01 >00:01:31.174 : en:Chapter 02 >00:10:49.732 : en:Chapter 03 >00:20:11.376 : en:Chapter 04 >00:22:51.119 : en:Chapter 05 > >

File list

  • [Tess] Cutie Honey [DVD 720x480 AVC AC3]
    • [Tess] Cutie Honey - 01 [DVD 720x480 AVC AC3][08400C69].mkv (583.4 MiB)
    • [Tess] Cutie Honey - 02 [DVD 720x480 AVC AC3][CD8A6A9D].mkv (568.0 MiB)
    • [Tess] Cutie Honey - 03 [DVD 720x480 AVC AC3][D976AB55].mkv (631.9 MiB)
    • [Tess] Cutie Honey - 04 [DVD 720x480 AVC AC3][227C4CF1].mkv (677.5 MiB)
    • [Tess] Cutie Honey - 05 [DVD 720x480 AVC AC3][EC18E5BB].mkv (640.1 MiB)
    • [Tess] Cutie Honey - 06 [DVD 720x480 AVC AC3][0337FAD1].mkv (580.1 MiB)
    • [Tess] Cutie Honey - 07 [DVD 720x480 AVC AC3][05EAD4E4].mkv (556.9 MiB)
    • [Tess] Cutie Honey - 08 [DVD 720x480 AVC AC3][E461B8F5].mkv (585.1 MiB)
    • [Tess] Cutie Honey - 09 [DVD 720x480 AVC AC3][7620A833].mkv (660.8 MiB)
    • [Tess] Cutie Honey - 10 [DVD 720x480 AVC AC3][64DC4F54].mkv (631.9 MiB)
    • [Tess] Cutie Honey - 11 [DVD 720x480 AVC AC3][942AE742].mkv (663.1 MiB)
    • [Tess] Cutie Honey - 12 [DVD 720x480 AVC AC3][B46021A9].mkv (673.6 MiB)
    • [Tess] Cutie Honey - 13 [DVD 720x480 AVC AC3][0ED72DE4].mkv (571.7 MiB)
    • [Tess] Cutie Honey - 14 [DVD 720x480 AVC AC3][470F0CB8].mkv (642.4 MiB)
    • [Tess] Cutie Honey - 15 [DVD 720x480 AVC AC3][EC649EC6].mkv (579.8 MiB)
    • [Tess] Cutie Honey - 16 [DVD 720x480 AVC AC3][0AE989FD].mkv (568.2 MiB)
    • [Tess] Cutie Honey - 17 [DVD 720x480 AVC AC3][29824DDF].mkv (562.4 MiB)
    • [Tess] Cutie Honey - 18 [DVD 720x480 AVC AC3][0D891620].mkv (578.7 MiB)
    • [Tess] Cutie Honey - 19 [DVD 720x480 AVC AC3][D4762708].mkv (611.4 MiB)
    • [Tess] Cutie Honey - 20 [DVD 720x480 AVC AC3][3EA2F7A3].mkv (589.1 MiB)
    • [Tess] Cutie Honey - 21 [DVD 720x480 AVC AC3][CD986C4A].mkv (578.9 MiB)
    • [Tess] Cutie Honey - 22 [DVD 720x480 AVC AC3][7C65929A].mkv (558.5 MiB)
    • [Tess] Cutie Honey - 23 [DVD 720x480 AVC AC3][BE42F8D1].mkv (570.8 MiB)
    • [Tess] Cutie Honey - 24 [DVD 720x480 AVC AC3][85FA3E27].mkv (522.3 MiB)
    • [Tess] Cutie Honey - 25 [DVD 720x480 AVC AC3][68617C74].mkv (555.0 MiB)
that's so cutie, thanks @tesseract ♡
I played your release with Koten Gars release back to back and I struggle to find the difference, am I missing something?

Tesseract (uploader)

User
@Rowri88 It depends on the frame some frames have pretty bad aliasing others are perfectly fine, when comparing pay attention to line edges specifically. Some frames have edges that are a lot more jagged than others if you step through frame by frame this aliasing becomes a lot more noticeable. You can also refer to the comparison screenshots I've included in the description.
Thanks. Great encode! A minor difference, sure, but definitely worth it. Much appreciated.