[VeloEncodes] Digimon Adventure: (2020) Episode 02 - War Game [1080p HEVC 10-bit]

Category:
Date:
2020-04-12 06:18 UTC
Submitter:
Seeders:
0
Information:
Leechers:
1
File size:
574.2 MiB
Completed:
151
Info hash:
d61e3f9a534d520f7918fdbc03626f78ee403610
![](https://gallery.withthewill.net/albums/userpics/10002/adventure2020_poster_january20_2020.jpg) HEVC release of the second episode of Digimon Adventure: (2020), the new reboot series. Subs are from Crunchyroll, HorribleSubs’ release, restyled and edited by yours truly to better match the aesthetic of the new series. Video is HorribleSubs’, reencoded with HEVC. **MediaInfo:** ``` General Unique ID : 32766347167239351797728145843659198013 (0x18A691A4981A35CCF1CEB46B3AAFCE3D) Complete name : E:\[VeloEncodes] Digimon Adventure (2020) Episode 02 - War Game [1080p HEVC 10-bit] [E3659A30].mkv Format : Matroska Format version : Version 4 File size : 574 MiB Duration : 23 min 19 s Overall bit rate : 3 442 kb/s Encoded date : UTC 2020-04-12 05:33:58 Writing application : mkvmerge v32.0.0 ('Astral Progressions') 64-bit Writing library : libebml v1.3.7 + libmatroska v1.5.0 Attachments : GANDHISANS-BOLD.OTF / GANDHISANS-BOLDITALIC.OTF / LITHOSPRO-REGULAR.OTF / LATO-BLACK_0.TTF / LATO-BOLD_0.TTF / LATO-REGULAR_0.TTF / LATO-SEMIBOLD_0.TTF Video ID : 1 Format : HEVC Format/Info : High Efficiency Video Coding Format profile : Main 10@L4@Main Codec ID : V_MPEGH/ISO/HEVC Duration : 23 min 17 s Bit rate : 3 076 kb/s Width : 1 920 pixels Height : 1 080 pixels Display aspect ratio : 16:9 Frame rate mode : Constant Frame rate : 23.976 (24000/1001) FPS Color space : YUV Chroma subsampling : 4:2:0 Bit depth : 10 bits Bits/(Pixel*Frame) : 0.062 Stream size : 513 MiB (89%) Writing library : x265 2.9:[Windows][GCC 8.2.0][64 bit] 10bit Encoding settings : cpuid=1111039 / frame-threads=3 / numa-pools=8 / wpp / no-pmode / no-pme / no-psnr / no-ssim / log-level=2 / input-csp=1 / input-res=1920x1080 / interlace=0 / total-frames=0 / level-idc=0 / high-tier=1 / uhd-bd=0 / ref=3 / no-allow-non-conformance / no-repeat-headers / annexb / no-aud / no-hrd / info / hash=0 / no-temporal-layers / open-gop / min-keyint=24 / keyint=240 / gop-lookahead=0 / bframes=6 / b-adapt=0 / b-pyramid / bframe-bias=0 / rc-lookahead=15 / lookahead-slices=6 / scenecut=40 / radl=0 / no-intra-refresh / ctu=64 / min-cu-size=8 / no-rect / no-amp / max-tu-size=32 / tu-inter-depth=1 / tu-intra-depth=1 / limit-tu=0 / rdoq-level=0 / dynamic-rd=0.00 / no-ssim-rd / signhide / no-tskip / nr-intra=0 / nr-inter=0 / no-constrained-intra / strong-intra-smoothing / max-merge=2 / limit-refs=3 / no-limit-modes / me=1 / subme=2 / merange=57 / temporal-mvp / weightp / no-weightb / no-analyze-src-pics / deblock=1:1 / sao / no-sao-non-deblock / rd=2 / no-early-skip / rskip / fast-intra / no-tskip-fast / no-cu-lossless / no-b-intra / no-splitrd-skip / rdpenalty=0 / psy-rd=1.00 / psy-rdoq=0.00 / no-rd-refine / no-lossless / cbqpoffs=0 / crqpoffs=0 / rc=crf / crf=19.0 / qcomp=0.60 / qpstep=4 / stats-write=0 / stats-read=0 / ipratio=1.40 / pbratio=1.30 / aq-mode=3 / aq-strength=0.80 / cutree / zone-count=0 / no-strict-cbr / qg-size=32 / no-rc-grain / qpmax=69 / qpmin=0 / no-const-vbv / sar=1 / overscan=0 / videoformat=5 / range=0 / colorprim=1 / transfer=1 / colormatrix=1 / chromaloc=0 / display-window=0 / max-cll=0,0 / min-luma=0 / max-luma=1023 / log2-max-poc-lsb=8 / vui-timing-info / vui-hrd-info / slices=1 / no-opt-qp-pps / no-opt-ref-list-length-pps / no-multi-pass-opt-rps / scenecut-bias=0.05 / no-opt-cu-delta-qp / no-aq-motion / no-hdr / no-hdr-opt / no-dhdr10-opt / no-idr-recovery-sei / analysis-reuse-level=5 / scale-factor=0 / refine-intra=0 / refine-inter=0 / refine-mv=0 / no-limit-sao / ctu-info=0 / no-lowpass-dct / refine-mv-type=0 / copy-pic=1 / max-ausize-factor=1.0 / no-dynamic-refine / no-single-sei Default : Yes Forced : No Color range : Limited Color primaries : BT.709 Transfer characteristics : BT.709 Matrix coefficients : BT.709 Audio ID : 2 Format : AAC LC Format/Info : Advanced Audio Codec Low Complexity Codec ID : A_AAC-2 Duration : 23 min 17 s Bit rate : 353 kb/s Channel(s) : 2 channels Channel layout : L R Sampling rate : 44.1 kHz Frame rate : 43.066 FPS (1024 SPF) Compression mode : Lossy Delay relative to video : -23 ms Stream size : 58.4 MiB (10%) Title : Stereo Language : Japanese Default : Yes Forced : No Text ID : 3 Format : ASS Codec ID : S_TEXT/ASS Codec ID/Info : Advanced Sub Station Alpha Duration : 23 min 7 s Bit rate : 82 b/s Count of elements : 278 Compression mode : Lossless Stream size : 14.0 KiB (0%) Default : Yes Forced : No ``` *Enjoy, and don’t forget to seed!* **If you enjoyed this release, do consider donating.** **BTC:** 1PwAZGwp6F2vsPMVW4fSpQB7K2GRxmwM8R **XLM:** GDB3IVXH22Q3F6ROVSEWK3HTPWHF5G2CCWXHP436K7SUL2UCO2VXXX4C **Ether:** 0xA46712a91cc7816B52D19810D7f3AC33188805d2 **USDT:** 0x08bbfe02b7d3b4e637d0d026f7c2cb85a8b81bb2 **DOGE:** DRxdEmt41va1xvrFUXLnqYJnFqcFt9LUSC **Join our Telegram group for more releases!** http://t.me/veloencodesreleases

File list

  • [VeloEncodes] Digimon Adventure (2020) Episode 02 - War Game [1080p HEVC 10-bit] [E3659A30].mkv (574.2 MiB)

thecharioteermode (uploader)

User
Sorry for the slow seeding, guys. My seedbox is functioning at peak capacity. I might upgrade to one with less of a limit on the upload speed by the end of the year.