[Harunoki] Poppin'Party x Roselia x RAISE A SUILEN - Yume wo Uchinuku Shunkan ni! / 夢を撃ち抜く瞬間に! (BanG Dream! 3rd Season EP13 ED) (1920x1080 @60fps HEVC)

Category:
Date:
2020-04-09 17:04 UTC
Submitter:
Seeders:
1
Information:
No information.
Leechers:
0
File size:
309.6 MiB
Completed:
243
Info hash:
cc5102c17215659849bb1fdc364a3daecd39b56b
BanG Dream 3rd Season Episode 13 Ending interpolated to 60fps using https://nyaa.si/view/1236412 as source video. Kanji: 夢を撃ち抜く瞬間に! General Unique ID : 89089226818661850680951028265338631247 (0x4305F601D15854A43AA8E3617CBD744F) Complete name : [Harunoki] Poppin'Party x Roselia x RAISE A SUILEN - Yume wo Uchinuku Shunkan ni! (BanG Dream! 3rd Season EP13 ED) (1920x1080 @60fps HEVC).mkv Format : Matroska Format version : Version 4 File size : 310 MiB Duration : 4 min 14 s Overall bit rate : 10.2 Mb/s Encoded date : UTC 2020-04-09 16:23:35 Writing application : mkvmerge v44.0.0 ('Domino') 64-bit Writing library : libebml v1.3.10 + libmatroska v1.5.2 Video ID : 1 Format : HEVC Format/Info : High Efficiency Video Coding Format profile : Main@L5@Main Codec ID : V_MPEGH/ISO/HEVC Duration : 4 min 14 s Bit rate : 10.1 Mb/s Width : 1 920 pixels Height : 1 080 pixels Display aspect ratio : 16:9 Frame rate mode : Constant Frame rate : 59.940 (60000/1001) FPS Color space : YUV Chroma subsampling : 4:2:0 Bit depth : 8 bits Bits/(Pixel*Frame) : 0.081 Stream size : 306 MiB (99%) Default : Yes Forced : No Audio ID : 2 Format : AAC LC Format/Info : Advanced Audio Codec Low Complexity Codec ID : A_AAC-2 Duration : 4 min 14 s Bit rate : 128 kb/s Channel(s) : 2 channels Channel layout : L R Sampling rate : 44.1 kHz Frame rate : 43.066 FPS (1024 SPF) Compression mode : Lossy Stream size : 3.88 MiB (1%) Language : English Default : No Forced : No Text ID : 3 Format : ASS Codec ID : S_TEXT/ASS Codec ID/Info : Advanced Sub Station Alpha Duration : 1 min 42 s Bit rate : 11 b/s Count of elements : 3 Compression mode : Lossless Stream size : 150 Bytes (0%) Title : English(US) Language : English Default : Yes Forced : No

File list

  • [Harunoki] Poppin'Party x Roselia x RAISE A SUILEN - Yume wo Uchinuku Shunkan ni! (BanG Dream! 3rd Season EP13 ED) (1920x1080 @60fps HEVC).mkv (309.6 MiB)
How do you remove artifacts when interpolating? I use Hybrid