[VeloEncodes] Digimon Adventure Zero Two (Dual-Audio) (10-bit) (1080p BDRip) SET 4 of 8

Category:
Date:
2020-04-08 15:33 UTC
Submitter:
Seeders:
0
Information:
Leechers:
0
File size:
5.4 GiB
Completed:
309
Info hash:
5a33db43d83026422c798d159f4d0d9fb6a22277
![img](https://images-na.ssl-images-amazon.com/images/I/71qKii9ZjOL._SL1160_.jpg) The fourth disc from the 15th anniversary Digimon Adventure Zero Two BD Box in glorious, dual-audio greatness. **MediaInfo (episode 22):** ``` General Unique ID : 13209445813431419566044976690349706335 (0x9F00BF61C103A82FCD162C9516F8C5F) Complete name : G:\Anime\Digimon Adventure Zero Two (Dual-Audio)\[VeloEncodes] Digimon Adventure Zero Two Episode 22 - Brave Evolution! XV-mon (Dual-Audio) (10-bit) (1080p BDRip) [1398B1FE].mkv Format : Matroska Format version : Version 4 File size : 1.03 GiB Duration : 23 min 5 s Overall bit rate mode : Variable Overall bit rate : 6 392 kb/s Encoded date : UTC 2020-04-08 11:04:17 Writing application : mkvmerge v32.0.0 ('Astral Progressions') 64-bit Writing library : libebml v1.3.7 + libmatroska v1.5.0 Video ID : 1 Format : HEVC Format/Info : High Efficiency Video Coding Codec ID : V_MPEGH/ISO/HEVC Duration : 23 min 5 s Bit rate : 5 291 kb/s Width : 1 440 pixels Height : 1 080 pixels Display aspect ratio : 4:3 Frame rate mode : Constant Frame rate : 23.976 (24000/1001) FPS Bits/(Pixel*Frame) : 0.142 Stream size : 874 MiB (83%) Title : BDrip By 晨曦@CXRAW Default : Yes Forced : No Audio #1 ID : 2 Format : FLAC Format/Info : Free Lossless Audio Codec Codec ID : A_FLAC Duration : 23 min 5 s Bit rate mode : Variable Bit rate : 715 kb/s Channel(s) : 2 channels Channel layout : L R Sampling rate : 48.0 kHz Frame rate : 11.719 FPS (4096 SPF) Bit depth : 16 bits Compression mode : Lossless Stream size : 118 MiB (11%) Title : Original Japanese Audio Writing library : libFLAC 1.2.1 (UTC 2007-09-17) Language : Japanese Default : No Forced : No Audio #2 ID : 3 Format : AC-3 Format/Info : Audio Coding 3 Commercial name : Dolby Digital Codec ID : A_AC3 Duration : 23 min 5 s Bit rate mode : Constant Bit rate : 192 kb/s Channel(s) : 2 channels Channel layout : L R Sampling rate : 48.0 kHz Frame rate : 31.250 FPS (1536 SPF) Bit depth : 16 bits Compression mode : Lossy Stream size : 31.7 MiB (3%) Title : Saban English Dub Language : English Service kind : Complete Main Default : Yes Forced : No Audio #3 ID : 4 Format : AC-3 Format/Info : Audio Coding 3 Commercial name : Dolby Digital Codec ID : A_AC3 Duration : 23 min 5 s Bit rate mode : Constant Bit rate : 192 kb/s Channel(s) : 2 channels Channel layout : L R Sampling rate : 48.0 kHz Frame rate : 31.250 FPS (1536 SPF) Bit depth : 16 bits Compression mode : Lossy Stream size : 31.7 MiB (3%) Title : Filipino English Dub Language : fil Service kind : Complete Main Default : No Forced : No Text #1 ID : 5 Format : ASS Codec ID : S_TEXT/ASS Codec ID/Info : Advanced Sub Station Alpha Duration : 22 min 51 s Bit rate : 25 b/s Count of elements : 56 Compression mode : Lossless Stream size : 4.27 KiB (0%) Title : English Signs Language : English Default : Yes Forced : No Text #2 ID : 6 Format : ASS Codec ID : S_TEXT/ASS Codec ID/Info : Advanced Sub Station Alpha Duration : 22 min 51 s Bit rate : 131 b/s Count of elements : 325 Compression mode : Lossless Stream size : 22.0 KiB (0%) Title : English Subs Language : English Default : No Forced : No ``` **Episodes included in this set:** Episode 22 - Brave Evolution! XV-mon Episode 23 - When The Digivice Is Tainted By Darkness Episode 24 - Armoured Ankylomon of the Earth Episode 25 - Knight of the Skies, Aquilamon Episode 26 - Jogress Evolution! When Two Hearts Become One Episode 27 - The Invincible Fusion! Paildramon **Further release information:** Video and original Japanese audio by CXRAW English and Filipino English audio by chillock/Out Of Control Subs by PositronCannon *Enjoy, and don’t forget to seed!* **If you enjoyed this release, do consider donating.** **BTC:** 1PwAZGwp6F2vsPMVW4fSpQB7K2GRxmwM8R **XLM:** GDB3IVXH22Q3F6ROVSEWK3HTPWHF5G2CCWXHP436K7SUL2UCO2VXXX4C **Ether:** 0xA46712a91cc7816B52D19810D7f3AC33188805d2 **USDT:** 0x08bbfe02b7d3b4e637d0d026f7c2cb85a8b81bb2 **DOGE:** DRxdEmt41va1xvrFUXLnqYJnFqcFt9LUSC **Join the Telegram channel for more releases!** https://t.me/veloencodesreleases

File list

  • [VeloEncodes] Digimon Adventure Zero Two (Dual-Audio) (10-bit) (1080p BDRip) SET 4 of 8
    • [VeloEncodes] Digimon Adventure Zero Two Episode 22 - Brave Evolution! XV-mon (Dual-Audio) (10-bit) (1080p BDRip) [1398B1FE].mkv (1.0 GiB)
    • [VeloEncodes] Digimon Adventure Zero Two Episode 23 - When The Digivice Is Tainted By Darkness (Dual-Audio) (10-bit) (1080p BDRip) [483E99CE].mkv (809.2 MiB)
    • [VeloEncodes] Digimon Adventure Zero Two Episode 24 - Armoured Ankylomon of the Earth (Dual-Audio) (10-bit) (1080p BDRip) v1 [62CAFB53].mkv (893.7 MiB)
    • [VeloEncodes] Digimon Adventure Zero Two Episode 25 - Knight of the Skies, Aquilamon (Dual-Audio) (10-bit) (1080p BDRip) [3B8EA903].mkv (961.7 MiB)
    • [VeloEncodes] Digimon Adventure Zero Two Episode 26 - Jogress Evolution! Now, Two Hearts Become One (Dual-Audio) (10-bit) (1080p BDRip) [FCE43AE0].mkv (898.5 MiB)
    • [VeloEncodes] Digimon Adventure Zero Two Episode 27 - The Invincible Fusion! Paildramon (Dual-Audio) (10-bit) (1080p BDRip) [B1F6A89D].mkv (868.9 MiB)
Blazing speeds! Thanks man for the efforts. That means offically my favourite series will finally be all in bluray. And dual audio to boot. Can't wait for the season 3 releases! I feel like season 3 is going to be really annoying for you. Some episodes are missing almost 3 minutes or content. Are you planning to add the Japanese audio for the missing parts? Or is there an international English version out there that covers the cut scenes from the dubbed version?

thecharioteermode (uploader)

User
I'm planning on doing a v2 for those episodes. I might release a separate torrent for those, or just straight up release them on MEGA/Baidu. Season 3 IS gonna be a pain in the butt to do, but I'm committed to it, and will eventually do the whole season. Rn, my focus is finishing Zero Two. As for international English versions, there is an alternate (Filipino English) audio track in all these episodes, that covers all of the missing parts as well. Cheers!
Legend. I wish Nyaa would implement some form of chat function instead of relying on going back to comments and not knowing when to comment. But I personally can't wait for it mate. I just had to a v2 of Orphen since I decided to keep the DTS and failed realise how bloat it was. Offically relased as "BD" with standard definition but the audio was DTS. even with HEVC compression it was still 32GB so I went back and changed the audio to AAC and it's been brought down to a little under 10GB. from the original 74GB (which I intend to put up for those that want to fiddle with it.) I'll be honest.. Never thought I'd get so dragged into this world. Wow.
Also I've decided. I'll encode them as they're released.. Wait for you to drop a complete release (i.e. all 50 episodes) torrent. Let that download for a while then I'll release the HEVC version. But man.. re-watching this and the work you've done so far.. but BROOO the Saiban audio gets me every time. The accents are so strong HAHA. I love it. Also is there a way I can contact you Chariot? By email possibly? I'll keep checking this torrent every 30 mins for an email or a contact way. Maybe discord? That way Once I have it you can delete it from here. I still have that Frontier WEB-DL version you wnt. I'll be re-uploading just for you.

thecharioteermode (uploader)

User
You can contact me on Discord. It's @BACVelocifaptor#4092. There's also Telegram, where my username is @BACVelocifaptor.
Thanks dude. contacted on Discord. Feel free to delete that message so others don't go unnecessarily addin you.
Sent a friend request on Discord btw. @UsifRenegade#5634

thecharioteermode (uploader)

User
Whoops, looks like you can't delete comments on Nyaa. Lemme accept your request.
Did you drop this project?

thecharioteermode (uploader)

User
I haven't. The next batch is ready already. Just haven't had time to upload it.