[Tess] Eikoku Koi Monogatari Emma (Emma A Victorian Romance) S1+S2 [DVD 720x480 AVC AC3]

Category:
Date:
2020-04-04 22:21 UTC
Submitter:
Seeders:
6
Information:
No information.
Leechers:
0
File size:
4.1 GiB
Completed:
616
Info hash:
f2971035b106bfb672d28faa18cce5b91e50ea5b
Video Source: R1 DVD Subs: R1 Vobsub Uploader Notes: '[Tess] Eikoku Koi Monogatari Emma Molders-hen - 00 [DVD 720x480 AVC AC3][D266A722].mkv' is the intermission episode/S1 recap released in between season 1 and season 2. This release has been properly deinterlaced i.e. field matched, deinterlaced with QTGMC, decimated, and residual combing was cleaned up by Vinverse. The audio was passed thru from the DVD with no additional compression. I aimed to keep this encode as transparent as possible. The R1 DVD does not include an english dub track. Below are some screenshot comparisons between the source DVD, this encode, and COR (It was the only other encode I had archived) | Source | Encode | COR | | :-: | :-: | :-: | [![jkMIoc.th.png](https://i1.lensdump.com/i/jkMIoc.th.png)](https://i1.lensdump.com/i/jkMIoc.png)|[![jkM8Re.th.png](https://i.lensdump.com/i/jkM8Re.th.png)](https://i.lensdump.com/i/jkM8Re.png)|[![jkL58A.th.png](https://i.lensdump.com/i/jkL58A.th.png)](https://i.lensdump.com/i/jkL58A.png) [![jkMg8K.th.png](https://i.lensdump.com/i/jkMg8K.th.png)](https://i.lensdump.com/i/jkMg8K.png)|[![jkMA7k.th.png](https://i1.lensdump.com/i/jkMA7k.th.png)](https://i1.lensdump.com/i/jkMA7k.png)|[![jkLxoq.th.png](https://i.lensdump.com/i/jkLxoq.th.png)](https://i.lensdump.com/i/jkLxoq.png) [![jkMrQZ.th.png](https://i.lensdump.com/i/jkMrQZ.th.png)](https://i.lensdump.com/i/jkMrQZ.png)|[![jkMWFx.th.png](https://i1.lensdump.com/i/jkMWFx.th.png)](https://i1.lensdump.com/i/jkMWFx.png)|[![jkLGJM.th.png](https://i1.lensdump.com/i/jkLGJM.th.png)](https://i1.lensdump.com/i/jkLGJM.png) [![jkMteP.th.png](https://i1.lensdump.com/i/jkMteP.th.png)](https://i1.lensdump.com/i/jkMteP.png)|[![jkMjIH.th.png](https://i.lensdump.com/i/jkMjIH.th.png)](https://i.lensdump.com/i/jkMjIH.png)|[![jkLaeQ.th.png](https://i1.lensdump.com/i/jkLaeQ.th.png)](https://i1.lensdump.com/i/jkLaeQ.png) [![jkM1ym.th.png](https://i1.lensdump.com/i/jkM1ym.th.png)](https://i1.lensdump.com/i/jkM1ym.png)|[![jkM0m1.th.png](https://i.lensdump.com/i/jkM0m1.th.png)](https://i.lensdump.com/i/jkM0m1.png)|[![jkLhxa.th.png](https://i.lensdump.com/i/jkLhxa.th.png)](https://i.lensdump.com/i/jkLhxa.png) Mediainfo: >General >Unique ID : 336503591779610511162076675901426146542 (0xFD283C00579830D1382C50FA23FE9CEE) >Complete name : [Tess] Eikoku Koi Monogatari Emma - 01 [DVD 720x480 AVC AC3][20405D06].mkv >Format : Matroska >Format version : Version 4 >File size : 152 MiB >Duration : 25 min 40 s >Overall bit rate : 827 kb/s >Encoded date : UTC 2020-04-04 21:03:03 >Writing application : mkvmerge v44.0.0 ('Domino') 64-bit >Writing library : libebml v1.3.10 + libmatroska v1.5.2 > >Video >ID : 1 >Format : AVC >Format/Info : Advanced Video Codec >Format profile : High 10@L5.1 >Format settings : CABAC / 12 Ref Frames >Format settings, CABAC : Yes >Format settings, Reference frames : 12 frames >Codec ID : V_MPEG4/ISO/AVC >Duration : 25 min 40 s >Bit rate : 633 kb/s >Width : 720 pixels >Height : 480 pixels >Display aspect ratio : 16:9 >Frame rate mode : Constant >Frame rate : 23.976 (24000/1001) FPS >Color space : YUV >Chroma subsampling : 4:2:0 >Bit depth : 10 bits >Scan type : Progressive >Bits/(Pixel*Frame) : 0.076 >Stream size : 116 MiB (76%) >Writing library : x264 core 159 r2991 1771b55 >Encoding settings : cabac=1 / ref=12 / deblock=1:-2:-2 / analyse=0x3:0x133 / me=umh / subme=11 / psy=1 / psy_rd=1.00:0.00 / mixed_ref=1 / me_range=32 / chroma_me=1 / trellis=2 / 8x8dct=1 / cqm=0 / deadzone=21,11 / fast_pskip=0 / chroma_qp_offset=-2 / threads=15 / lookahead_threads=6 / sliced_threads=0 / slices=4 / nr=0 / decimate=1 / interlaced=0 / bluray_compat=0 / constrained_intra=0 / bframes=8 / b_pyramid=2 / b_adapt=2 / b_bias=0 / direct=3 / weightb=1 / open_gop=0 / weightp=2 / keyint=250 / keyint_min=23 / scenecut=40 / intra_refresh=0 / rc_lookahead=250 / rc=crf / mbtree=1 / crf=15.0 / qcomp=0.60 / qpmin=0 / qpmax=69 / qpstep=4 / vbv_maxrate=720000 / vbv_bufsize=720000 / crf_max=0.0 / nal_hrd=none / filler=0 / ip_ratio=1.40 / aq=3:0.80 >Default : Yes >Forced : No > >Audio >ID : 2 >Format : AC-3 >Format/Info : Audio Coding 3 >Commercial name : Dolby Digital >Codec ID : A_AC3 >Duration : 25 min 40 s >Bit rate mode : Constant >Bit rate : 192 kb/s >Channel(s) : 2 channels >Channel layout : L R >Sampling rate : 48.0 kHz >Frame rate : 31.250 FPS (1536 SPF) >Compression mode : Lossy >Stream size : 35.3 MiB (23%) >Language : Japanese >Service kind : Complete Main >Default : Yes >Forced : No > >Text >ID : 3 >Format : VobSub >Muxing mode : zlib >Codec ID : S_VOBSUB >Codec ID/Info : Picture based subtitle format used on DVDs >Duration : 23 min 51 s >Bit rate : 2 738 b/s >Count of elements : 231 >Stream size : 478 KiB (0%) >Language : English >Default : Yes >Forced : No > >Menu >00:00:00.000 : en:Chapter 01 >00:02:22.475 : en:Chapter 02 >00:11:45.337 : en:Chapter 03 >00:22:24.876 : en:Chapter 04 >00:23:54.833 : en:Chapter 05 >00:24:10.582 : en:Chapter 06 >00:25:39.804 : en:Chapter 07 > >

File list

  • [Tess] Eikoku Koi Monogatari Emma S1+S2 [DVD 720x480 AVC AC3]
    • [Tess] Eikoku Koi Monogatari Emma - 01 [DVD 720x480 AVC AC3][20405D06].mkv (152.0 MiB)
    • [Tess] Eikoku Koi Monogatari Emma - 02 [DVD 720x480 AVC AC3][4114F23D].mkv (163.6 MiB)
    • [Tess] Eikoku Koi Monogatari Emma - 03 [DVD 720x480 AVC AC3][D4C4B537].mkv (158.1 MiB)
    • [Tess] Eikoku Koi Monogatari Emma - 04 [DVD 720x480 AVC AC3][0479E6CB].mkv (170.0 MiB)
    • [Tess] Eikoku Koi Monogatari Emma - 05 [DVD 720x480 AVC AC3][24D94CE5].mkv (135.6 MiB)
    • [Tess] Eikoku Koi Monogatari Emma - 06 [DVD 720x480 AVC AC3][F0446EC9].mkv (141.4 MiB)
    • [Tess] Eikoku Koi Monogatari Emma - 07 [DVD 720x480 AVC AC3][FBA09E57].mkv (148.5 MiB)
    • [Tess] Eikoku Koi Monogatari Emma - 08 [DVD 720x480 AVC AC3][9667EA0C].mkv (137.3 MiB)
    • [Tess] Eikoku Koi Monogatari Emma - 09 [DVD 720x480 AVC AC3][32A0AD9E].mkv (140.0 MiB)
    • [Tess] Eikoku Koi Monogatari Emma - 10 [DVD 720x480 AVC AC3][7482FEED].mkv (134.4 MiB)
    • [Tess] Eikoku Koi Monogatari Emma - 11 [DVD 720x480 AVC AC3][194D1A31].mkv (151.1 MiB)
    • [Tess] Eikoku Koi Monogatari Emma - 12 [DVD 720x480 AVC AC3][32D4AA34].mkv (138.7 MiB)
    • [Tess] Eikoku Koi Monogatari Emma Molders-hen - 00 [DVD 720x480 AVC AC3][D266A722].mkv (164.1 MiB)
    • [Tess] Eikoku Koi Monogatari Emma Molders-hen - 01 [DVD 720x480 AVC AC3][47EBD16F].mkv (189.7 MiB)
    • [Tess] Eikoku Koi Monogatari Emma Molders-hen - 02 [DVD 720x480 AVC AC3][4BDD010D].mkv (204.6 MiB)
    • [Tess] Eikoku Koi Monogatari Emma Molders-hen - 03 [DVD 720x480 AVC AC3][81419172].mkv (183.3 MiB)
    • [Tess] Eikoku Koi Monogatari Emma Molders-hen - 04 [DVD 720x480 AVC AC3][EC63E494].mkv (191.0 MiB)
    • [Tess] Eikoku Koi Monogatari Emma Molders-hen - 05 [DVD 720x480 AVC AC3][0DA672E8].mkv (189.5 MiB)
    • [Tess] Eikoku Koi Monogatari Emma Molders-hen - 06 [DVD 720x480 AVC AC3][771EA36C].mkv (200.0 MiB)
    • [Tess] Eikoku Koi Monogatari Emma Molders-hen - 07 [DVD 720x480 AVC AC3][0AAB7E6D].mkv (181.4 MiB)
    • [Tess] Eikoku Koi Monogatari Emma Molders-hen - 08 [DVD 720x480 AVC AC3][F434F1E1].mkv (182.4 MiB)
    • [Tess] Eikoku Koi Monogatari Emma Molders-hen - 09 [DVD 720x480 AVC AC3][658E3F3A].mkv (188.7 MiB)
    • [Tess] Eikoku Koi Monogatari Emma Molders-hen - 10 [DVD 720x480 AVC AC3][6E5D4AB5].mkv (178.2 MiB)
    • [Tess] Eikoku Koi Monogatari Emma Molders-hen - 11 [DVD 720x480 AVC AC3][C8BB0C6B].mkv (182.4 MiB)
    • [Tess] Eikoku Koi Monogatari Emma Molders-hen - 12 [DVD 720x480 AVC AC3][F009C8FF].mkv (201.1 MiB)
why not trim the black?

Tesseract (uploader)

User
The black isn't even on both sides trimming them would result in animation pixels being cropped which is something I don't do.
Please please please, is there anyone who has the new dub and kind enough to upload it here? 254 USD per season is too much for me considering also the currency exchange rate of x4.1 here. Forgive me for hi-jacking this torrent comments, I don't know where else to post it.
try asking in nanda.ru
^ Done, Thanks for the advice.
Any plans of encoding the BDs? https://nyaa.si/view/1386521