[ShukaShuu] Love Live! Sunshine!! FAN DISC ~Aqours Memories~ [BD] [1080p] [qaac] HEVC 10 BITS lovelive

Category:
Date:
2020-03-30 09:49 UTC
Submitter:
Seeders:
0
File size:
4.0 GiB
Completed:
727
Info hash:
ce9f3ac40cf05242d1bcd0038afa00ae4541ceb9
![alt text](https://i.ibb.co/5h9mKW9/Love-Live-Sunshine-FAN-DISC-Aqours-Memories-HEVC-10-BITS-QAAC-lovelive.png "uwu") Crf 21 slow X.265 10bit qaac tvbr 127 Format : Matroska Format version : Version 4 File size : 4.03 GiB Duration : 1 h 33 min Overall bit rate : 6 163 kb/s Encoded date : UTC 2020-03-30 02:53:21 Writing application : mkvmerge v44.0.0 ('Domino') 64-bit Writing library : libebml v1.3.10 + libmatroska v1.5.2 Encoding Gui : Hybrid 2020.01.11.1 Video ID : 1 Format : HEVC Format/Info : High Efficiency Video Coding Format profile : Main 10@L4@Main Codec ID : V_MPEGH/ISO/HEVC Duration : 1 h 33 min Bit rate : 5 911 kb/s Width : 1 920 pixels Height : 1 080 pixels Display aspect ratio : 16:9 Frame rate mode : Constant Frame rate : 29.970 (30000/1001) FPS Color space : YUV Chroma subsampling : 4:2:0 Bit depth : 10 bits Bits/(Pixel*Frame) : 0.095 Stream size : 3.86 GiB (96%) Writing library : x265 3.2+31-6b348d5b56d8:[Windows][GCC 9.2.0][64 bit] 10bit Language : English Default : Yes Forced : Yes Color range : Limited Matrix coefficients : BT.709 Audio ID : 2 Format : AAC LC Format/Info : Advanced Audio Codec Low Complexity Codec ID : A_AAC-2 Duration : 1 h 33 min Bit rate : 249 kb/s Channel(s) : 2 channels Channel layout : L R Sampling rate : 48.0 kHz Frame rate : 46.875 FPS (1024 SPF) Compression mode : Lossy Delay relative to video : 20 ms Stream size : 167 MiB (4%) Default : Yes Forced : No Menu 00:00:00.000 : en:Chapter 01 00:05:20.787 : en:Chapter 02 00:18:57.603 : en:Chapter 03 00:32:21.639 : en:Chapter 04 00:35:00.498 : en:Chapter 05 00:39:05.710 : en:Chapter 06 00:45:39.903 : en:Chapter 07 00:53:41.952 : en:Chapter 08 01:03:54.997 : en:Chapter 09 01:07:14.964 : en:Chapter 10 01:14:57.359 : en:Chapter 11 01:20:06.368 : en:Chapter 12 01:25:46.007 : en:Chapter 13 01:33:33.774 : en:Chapter 14

File list

  • Love Live! Sunshine!! FAN DISC ~Aqours Memories~ HEVC 10BITS-QAAC lovelive.mkv (4.0 GiB)