Angel Beats! (2010) [1080p x265 HEVC 10bit BluRay Dual Audio AAC] [Prof]

Category:
Date:
2020-03-30 03:33 UTC
Submitter:
Seeders:
10
Information:
No information.
Leechers:
4
File size:
4.3 GiB
Completed:
890
Info hash:
16bf8dab10fc270fcfb61e087bff589640d27dec
[![36637.jpg](https://i.postimg.cc/63m5nYx0/36637.jpg)](https://postimg.cc/LYjpMkXY) Synopsis Otonashi awakens only to learn he is dead. A rifle-toting girl named Yuri explains that they are in the afterlife, and Otonashi realizes the only thing he can remember about himself is his name. Yuri tells him that she leads the Shinda Sekai Sensen (Afterlife Battlefront) and wages war against a girl named Tenshi. Unable to believe Yuri's claims that Tenshi is evil, Otonashi attempts to speak with her, but the encounter doesn't go as he intended. Otonashi decides to join the SSS and battle Tenshi, but he finds himself oddly drawn to her. While trying to regain his memories and understand Tenshi, he gradually unravels the mysteries of the afterlife. Alternative Titles English: Angel Beats! Japanese: Angel Beats!(エンジェルビーツ) Information Type: TV Episodes: 13 Status: Finished Airing Aired: Apr 3, 2010 to Jun 26, 2010 Premiered: Spring 2010 Broadcast: Unknown Producers: Aniplex, Dentsu, Mainichi Broadcasting System, CBC, Movic, Visual Art's, ASCII Media Works Licensors: Sentai Filmworks Studios: P.A. Works Source: Original Genres: Action, Comedy, Drama, School, Supernatural Duration: 24 min. per ep. Rating: PG-13 - Teens 13 or older [![Prof-S01-E01-Departure-mkv-snapshot-13-10-2020-03-29-21-58-48.png](https://i.postimg.cc/HxDCgRmF/Prof-S01-E01-Departure-mkv-snapshot-13-10-2020-03-29-21-58-48.png)](https://postimg.cc/f3KP7HJv) [![Prof-S01-E02-Guild-mkv-snapshot-06-53-2020-03-29-21-59-09.png](https://i.postimg.cc/jSDVJtdG/Prof-S01-E02-Guild-mkv-snapshot-06-53-2020-03-29-21-59-09.png)](https://postimg.cc/tsGvK065) [![Prof-S01-E03-My-Song-mkv-snapshot-18-40-2020-03-29-22-00-38.png](https://i.postimg.cc/qM7S94nz/Prof-S01-E03-My-Song-mkv-snapshot-18-40-2020-03-29-22-00-38.png)](https://postimg.cc/z39xhmxr) Format : Matroska Format version : Version 4 File size : 363 MiB Duration : 26 min 4 s Overall bit rate : 1 945 kb/s Encoded date : UTC 2020-03-25 19:11:52 Writing application : mkvmerge v29.0.0 ('Like It Or Not') 64-bit Writing library : libebml v1.3.6 + libmatroska v1.4.9 Writing frontend : StaxRip v2.0.0.0 Video ID : 1 Format : HEVC Format/Info : High Efficiency Video Coding Format profile : Main 10@L4@Main Codec ID : V_MPEGH/ISO/HEVC Duration : 26 min 3 s Bit rate : 1 422 kb/s Width : 1 920 pixels Height : 1 080 pixels Display aspect ratio : 16:9 Frame rate mode : Constant Frame rate : 23.976 (24000/1001) FPS Color space : YUV Chroma subsampling : 4:2:0 Bit depth : 10 bits Bits/(Pixel*Frame) : 0.029 Stream size : 265 MiB (73%) Writing library : x265 3.3+2-gd9a7411cc:[Windows][MSVC 1925][64 bit] 10bit Encoding settings : cpuid=1111039 / frame-threads=3 / numa-pools=12 / wpp / no-pmode / no-pme / no-psnr / no-ssim / log-level=2 / input-csp=1 / input-res=1920x1080 / interlace=0 / total-frames=37488 / level-idc=0 / high-tier=1 / uhd-bd=0 / ref=4 / no-allow-non-conformance / no-repeat-headers / annexb / no-aud / no-hrd / info / hash=0 / no-temporal-layers / open-gop / min-keyint=23 / keyint=250 / gop-lookahead=0 / bframes=8 / b-adapt=2 / b-pyramid / bframe-bias=0 / rc-lookahead=80 / lookahead-slices=6 / scenecut=40 / hist-scenecut=0 / radl=0 / no-splice / no-intra-refresh / ctu=64 / min-cu-size=8 / rect / no-amp / max-tu-size=32 / tu-inter-depth=1 / tu-intra-depth=1 / limit-tu=0 / rdoq-level=2 / dynamic-rd=0.00 / no-ssim-rd / signhide / no-tskip / nr-intra=0 / nr-inter=0 / no-constrained-intra / strong-intra-smoothing / max-merge=3 / limit-refs=3 / limit-modes / me=3 / subme=3 / merange=57 / temporal-mvp / no-frame-dup / no-hme / weightp / no-weightb / no-analyze-src-pics / deblock=0:0 / sao / no-sao-non-deblock / rd=4 / selective-sao=4 / no-early-skip / rskip / no-fast-intra / no-tskip-fast / no-cu-lossless / no-b-intra / no-splitrd-skip / rdpenalty=0 / psy-rd=2.00 / psy-rdoq=1.00 / no-rd-refine / no-lossless / cbqpoffs=0 / crqpoffs=0 / rc=crf / crf=20.0 / qcomp=0.60 / qpstep=4 / stats-write=0 / stats-read=0 / ipratio=1.40 / pbratio=1.30 / aq-mode=2 / aq-strength=0.80 / cutree / zone-count=0 / no-strict-cbr / qg-size=32 / no-rc-grain / qpmax=69 / qpmin=0 / no-const-vbv / sar=0 / overscan=0 / videoformat=5 / range=0 / colorprim=2 / transfer=2 / colormatrix=1 / chromaloc=0 / display-window=0 / cll=0,0 / min-luma=0 / max-luma=1023 / log2-max-poc-lsb=8 / vui-timing-info / vui-hrd-info / slices=1 / no-opt-qp-pps / no-opt-ref-list-length-pps / no-multi-pass-opt-rps / scenecut-bias=0.05 / hist-threshold=0.01 / no-opt-cu-delta-qp / no-aq-motion / no-hdr10 / no-hdr10-opt / no-dhdr10-opt / no-idr-recovery-sei / analysis-reuse-level=0 / analysis-save-reuse-level=0 / analysis-load-reuse-level=0 / scale-factor=0 / refine-intra=0 / refine-inter=0 / refine-mv=1 / refine-ctu-distortion=0 / no-limit-sao / ctu-info=0 / no-lowpass-dct / refine-analysis-type=0 / copy-pic=1 / max-ausize-factor=1.0 / no-dynamic-refine / no-single-sei / no-hevc-aq / no-svt / no-field / qp-adaptation-range=1.00 / no-scenecut-aware-qpconformance-window-offsets / right=0 / bottom=0 Default : Yes Forced : No Color range : Limited Matrix coefficients : BT.709 Audio #1 ID : 2 Format : AAC LC Format/Info : Advanced Audio Codec Low Complexity Codec ID : A_AAC-2 Duration : 26 min 3 s Bit rate : 256 kb/s Channel(s) : 2 channels Channel layout : L R Sampling rate : 48.0 kHz Frame rate : 46.875 FPS (1024 SPF) Compression mode : Lossy Delay relative to video : 20 ms Stream size : 47.7 MiB (13%) Language : English Default : Yes Forced : No Audio #2 ID : 3 Format : AAC LC Format/Info : Advanced Audio Codec Low Complexity Codec ID : A_AAC-2 Duration : 26 min 3 s Bit rate : 248 kb/s Channel(s) : 2 channels Channel layout : L R Sampling rate : 48.0 kHz Frame rate : 46.875 FPS (1024 SPF) Compression mode : Lossy Delay relative to video : 20 ms Stream size : 46.3 MiB (13%) Language : Japanese Default : Yes Forced : No Text #1 ID : 4 Format : PGS Muxing mode : zlib Codec ID : S_HDMV/PGS Codec ID/Info : Picture based subtitle format used on BDs/HD-DVDs Duration : 25 min 39 s Bit rate : 68.5 kb/s Count of elements : 745 Stream size : 12.6 MiB (3%) Language : English Default : No Forced : No Text #2 ID : 5 Format : PGS Muxing mode : zlib Codec ID : S_HDMV/PGS Codec ID/Info : Picture based subtitle format used on BDs/HD-DVDs Duration : 25 min 28 s Bit rate : 9 683 b/s Count of elements : 117 Stream size : 1.76 MiB (0%) Language : English Default : Yes Forced : No Source: [![71-HIBrm-Ce-GL-SL1280.jpg](https://i.postimg.cc/x8B8DgsC/71-HIBrm-Ce-GL-SL1280.jpg)](https://postimg.cc/YLfMQNBK) Coming soon: Fate/Zero Wolf Children 91 Days

File list

  • Angel Beats! (2010) [1080p x265 HEVC 10bit BluRay Dual Audio AAC] [Prof]
    • [Prof] S01E01 - Departure.mkv (362.6 MiB)
    • [Prof] S01E02 - Guild.mkv (370.7 MiB)
    • [Prof] S01E03 - My Song.mkv (381.6 MiB)
    • [Prof] S01E04 - Day Game.mkv (386.3 MiB)
    • [Prof] S01E05 - Favorite Flavor.mkv (338.9 MiB)
    • [Prof] S01E06 - Family Affair.mkv (332.6 MiB)
    • [Prof] S01E07 - Alive.mkv (388.9 MiB)
    • [Prof] S01E08 - Dancer in the Dark.mkv (287.1 MiB)
    • [Prof] S01E09 - In Your Memory.mkv (207.1 MiB)
    • [Prof] S01E10 - Goodbye Days .mkv (394.7 MiB)
    • [Prof] S01E11 -Change the World.mkv (330.7 MiB)
    • [Prof] S01E12 - Knockin' on Heaven's Door.mkv (265.3 MiB)
    • [Prof] S01E13 - Graduation .mkv (372.3 MiB)

DOS

User
@prof please do Satoshi Kon's movie "Millennium Actress". Last year it got a new English dub.
@ DOS dubs suck most of the time just stick too subs. reaktor has a dual audio release for that movie and there are already a few good releases for the movie. thanks for the upload prof
Damn, it's been 10 years already? Thanks for the upload.
I love this anime. If you haven't seen it give it a shot. The story works on multiple levels and it's one of the few anime I've watched more than once.
Been wanting this for a while, my old version was missing the forced subs. Thanks! Would you consider redoing Vol. 1-5 of Hunter x Hunter without burnt in subtitles to match Vol. 6?
can you release Naruto Shippuden BD release