[Harunoki] Love Live! Sunshine!! Aqours - KOKORO Magic A to Z (BD 1920x1080@60fps HEVC FLAC) (Romaji Karaoke + Spanish Sub)

Category:
Date:
2020-03-26 19:32 UTC
Submitter:
Seeders:
10
Information:
Leechers:
4
File size:
737.4 MiB
Completed:
87
Info hash:
42ba96aa2f56832c0d16702273d40deaab9b6445
KOKORO Magic "A to Z" interpolated to 60fps using the subs from https://nyaa.si/view/1201799 thanks to AnimeDreamFansub PogonzaRod-sensei File Info: General Unique ID : 65754225028794496684658178336183504521 (0x3177CD97A733DB06AAF76A2D36434E89) Complete name : [Harunoki] Love Live! Sunshine!! Aqours - Kokoro Magic A to Z (BD 1920x1080@60fps HEVC FLAC) (Romaji Karaoke + Spanish Sub).mkv Format : Matroska Format version : Version 4 File size : 737 MiB Duration : 5 min 42 s Overall bit rate mode : Variable Overall bit rate : 18.1 Mb/s Movie name : KOKORO Magic "A to Z" Encoded date : UTC 2020-03-26 19:28:21 Writing application : mkvmerge v44.0.0 ('Domino') 64-bit Writing library : libebml v1.3.10 + libmatroska v1.5.2 Attachments : CandelaBold.otf Video ID : 1 Format : HEVC Format/Info : High Efficiency Video Coding Format profile : Main@L5@Main Codec ID : V_MPEGH/ISO/HEVC Duration : 5 min 42 s Bit rate : 16.2 Mb/s Width : 1 920 pixels Height : 1 080 pixels Display aspect ratio : 16:9 Frame rate mode : Constant Frame rate : 59.940 (60000/1001) FPS Color space : YUV Chroma subsampling : 4:2:0 Bit depth : 8 bits Bits/(Pixel*Frame) : 0.130 Stream size : 660 MiB (89%) Default : Yes Forced : No Audio ID : 2 Format : FLAC Format/Info : Free Lossless Audio Codec Codec ID : A_FLAC Duration : 5 min 42 s Bit rate mode : Variable Bit rate : 1 855 kb/s Channel(s) : 2 channels Channel layout : L R Sampling rate : 48.0 kHz Frame rate : 11.719 FPS (4096 SPF) Bit depth : 24 bits Compression mode : Lossless Stream size : 75.7 MiB (10%) Writing library : libFLAC 1.3.3 (UTC 2019-08-04) Language : English Default : No Forced : No Text #1 ID : 3 Format : ASS Codec ID : S_TEXT/ASS Codec ID/Info : Advanced Sub Station Alpha Duration : 4 min 49 s Bit rate : 22.5 kb/s Count of elements : 3495 Compression mode : Lossless Stream size : 794 KiB (0%) Title : Romaji karaoke with effects Language : English Default : Yes Forced : No Text #2 ID : 4 Format : ASS Codec ID : S_TEXT/ASS Codec ID/Info : Advanced Sub Station Alpha Duration : 4 min 49 s Bit rate : 341 b/s Count of elements : 123 Compression mode : Lossless Stream size : 12.0 KiB (0%) Title : Romaji karaoke without effects Language : English Default : No Forced : No Text #3 ID : 5 Format : ASS Codec ID : S_TEXT/ASS Codec ID/Info : Advanced Sub Station Alpha Duration : 4 min 49 s Bit rate : 22.5 kb/s Count of elements : 3495 Compression mode : Lossless Stream size : 797 KiB (0%) Title : Español latino + karaoke con efectos Language : Spanish Default : No Forced : No Text #4 ID : 6 Format : ASS Codec ID : S_TEXT/ASS Codec ID/Info : Advanced Sub Station Alpha Duration : 4 min 49 s Bit rate : 411 b/s Count of elements : 123 Compression mode : Lossless Stream size : 14.5 KiB (0%) Title : Español latino + karaoke sin efectos Language : Spanish Default : No Forced : No

File list

  • [Harunoki] Love Live! Sunshine!! Aqours - Kokoro Magic A to Z (BD 1920x1080@60fps HEVC FLAC) (Romaji Karaoke + Spanish Sub).mkv (737.4 MiB)
Wow, such a legendary upload. Good Work!!
good work Harunoki and ADF team. keep up
para pensar señores