[NSBC] Samu no Koto E01 [WEBDL ] [1080p]

Category:
Date:
2020-03-26 13:25 UTC
Submitter:
Seeders:
9
Information:
TlNCQy50bw==
Leechers:
1
File size:
804.8 MiB
Completed:
406
Info hash:
2a8dd6bb07069de5341afeda59379d34dc2c81db
> ### Someone has request this. ![](http://img.topddl.net/images/2020/03/26/ogp2.jpg "") ![](http://img.topddl.net/images/2020/03/26/Samu-no-Koto-S01E01-1080p-WEB-DL-AAC-H.264-NSBC.mkv.jpg "") ``` General Unique ID : 54241745817991035970981316157513199917 (0x28CE948B4ED773CAF5DC8B5F2CB4F12D) Complete name : Samu no Koto S01E01 1080p WEB-DL AAC H.264-NSBC.mkv Format : Matroska Format version : Version 4 File size : 805 MiB Duration : 22 min 36 s Overall bit rate : 4 977 kb/s Movie name : Samu no Koto S01E01 1080p WEB-DL AAC H.264-NSBC Encoded by : NoNe | NSBC Encoded date : UTC 2020-03-26 13:18:01 Writing application : mkvmerge v29.0.0 ('Like It Or Not') 64-bit Writing library : libebml v1.3.6 + libmatroska v1.4.9 Copyright : NSBC Comment : NoNe | NSBC DATE_RECORDED : 2020 NOTICE ME : SENPAI WEBSITE : NSBC.to Video ID : 1 Format : AVC Format/Info : Advanced Video Codec Format profile : High@L4 Format settings : CABAC / 3 Ref Frames Format settings, CABAC : Yes Format settings, Reference frames : 3 frames Format settings, GOP : M=1, N=30 Codec ID : V_MPEG4/ISO/AVC Duration : 22 min 36 s Bit rate : 4 847 kb/s Width : 1 920 pixels Height : 1 080 pixels Display aspect ratio : 16:9 Frame rate mode : Constant Frame rate : 29.970 (30000/1001) FPS Color space : YUV Chroma subsampling : 4:2:0 Bit depth : 8 bits Scan type : Progressive Bits/(Pixel*Frame) : 0.078 Stream size : 784 MiB (97%) Title : [NSBC] Default : Yes Forced : No Color range : Limited Color primaries : BT.709 Transfer characteristics : BT.709 Matrix coefficients : BT.709 Audio ID : 2 Format : AAC LC Format/Info : Advanced Audio Codec Low Complexity Codec ID : A_AAC-2 Duration : 22 min 36 s Bit rate : 128 kb/s Channel(s) : 2 channels Channel layout : L R Sampling rate : 48.0 kHz Frame rate : 46.875 FPS (1024 SPF) Compression mode : Lossy Stream size : 20.7 MiB (3%) Title : [NSBC] Language : Japanese Default : Yes Forced : No ```

File list

  • Samu no Koto S01E01 1080p WEB-DL AAC H.264-NSBC.mkv (804.8 MiB)
thank you! found on Gyao to watch but it isn't streaming. some error. but i was surprised because it's nogizaka46 dorama haha but i'm glad it seems it's released same day as shoshite yuriko hitori ni natta

NOSoba (uploader)

User
i mean you can watch it over youtube that on dTV channel just search it..