[NSBC] Unmei Kara Hajimaru Koi 2020 E08 [WEBDL] [1080p]

Category:
Date:
2020-03-26 03:03 UTC
Submitter:
Seeders:
9
Information:
TlNCQy50bw==
Leechers:
0
File size:
749.0 MiB
Completed:
359
Info hash:
7e4463674d3e8f91835ca4acaa39936956d832c9
> ### Subtitle: English | Indonesian > ### Also available on [Subscene](https://subscene.com/subtitles/you-are-my-destiny-unmei-kara-hajimaru-koi) > ### From Viu Singapore > ### V2 soon ![](http://img.topddl.net/images/2020/02/15/mv.jpg "") ![](http://img.topddl.net/images/2020/03/26/Unmei.Kara.Hajimaru.Koi.2020.S01E08.1080p.WEB-DL.AAC.H.264-NSBC.mkv.jpg "") ``` General Unique ID : 3331661039355939629791193527697576528 (0x281A7924B5980C3BF33C64707949250) Complete name : Unmei.Kara.Hajimaru.Koi.2020.S01E08.1080p.WEB-DL.AAC.H.264-NSBC.mkv Format : Matroska Format version : Version 4 File size : 749 MiB Duration : 35 min 0 s Overall bit rate mode : Variable Overall bit rate : 2 992 kb/s Movie name : Unmei.Kara.Hajimaru.Koi.2020.S01E08.1080p.WEB-DL.AAC.x264-NSBC Encoded by : NoNe | NSBC Encoded date : UTC 2020-03-26 02:58:01 Writing application : mkvmerge v29.0.0 ('Like It Or Not') 64-bit Writing library : libebml v1.3.6 + libmatroska v1.4.9 Copyright : NSBC Comment : NoNe | NSBC DATE_RECORDED : 2020 NOTICE ME : SENPAI WEBSITE : NSBC.to Video ID : 1 Format : AVC Format/Info : Advanced Video Codec Format profile : High@L4.1 Format settings : CABAC / 4 Ref Frames Format settings, CABAC : Yes Format settings, Reference frames : 4 frames Codec ID : V_MPEG4/ISO/AVC Duration : 35 min 0 s Bit rate mode : Variable Bit rate : 2 893 kb/s Maximum bit rate : 4 500 kb/s Width : 1 920 pixels Height : 1 080 pixels Display aspect ratio : 16:9 Frame rate mode : Constant Frame rate : 29.970 (30000/1001) FPS Original frame rate : 29.970 (29970/1000) FPS Color space : YUV Chroma subsampling : 4:2:0 Bit depth : 8 bits Scan type : Progressive Bits/(Pixel*Frame) : 0.047 Stream size : 724 MiB (97%) Title : [NSBC] Writing library : VOLO1.4.1 Default : Yes Forced : No Audio ID : 2 Format : AAC LC Format/Info : Advanced Audio Codec Low Complexity Codec ID : A_AAC-2 Duration : 35 min 0 s Bit rate : 96.0 kb/s Channel(s) : 2 channels Channel layout : L R Sampling rate : 48.0 kHz Frame rate : 46.875 FPS (1024 SPF) Compression mode : Lossy Delay relative to video : -42 ms Stream size : 24.0 MiB (3%) Title : [NSBC] Language : Japanese Default : Yes Forced : No Text #1 ID : 3 Format : UTF-8 Codec ID : S_TEXT/UTF8 Codec ID/Info : UTF-8 Plain Text Duration : 34 min 23 s Bit rate : 33 b/s Count of elements : 386 Stream size : 8.41 KiB (0%) Title : [NSBC] Language : English Default : No Forced : No Text #2 ID : 4 Format : UTF-8 Codec ID : S_TEXT/UTF8 Codec ID/Info : UTF-8 Plain Text Duration : 34 min 23 s Bit rate : 35 b/s Count of elements : 386 Stream size : 8.88 KiB (0%) Title : [NSBC] Language : Indonesian Default : Yes Forced : No ```

File list

  • Unmei.Kara.Hajimaru.Koi.2020.S01E08.1080p.WEB-DL.AAC.H.264-NSBC.mkv (749.0 MiB)
Can you make subtitles for Kaguya-sama : love is war live action ?

NOSoba (uploader)

User
to english? if so, i believe there's was fansub already done that. just search it :D