[NSBC] Zettai Reido 4 SP [HDTV] [720p]

Category:
Date:
2020-03-25 12:53 UTC
Submitter:
Seeders:
20
Information:
TlNCQy50bw==
Leechers:
3
File size:
2.9 GiB
Completed:
958
Info hash:
cb9ef63943515012d5dff225909b3f7587d40139
> ### There is some glitch screen but its acceptable. ![](http://img.topddl.net/images/2020/01/12/zettaireido2018.jpg "") ![](http://img.topddl.net/images/2020/03/25/Zettai-Reido-S04-SP-720p-HDTV-AAC-H.264-NSBC.mkv.jpg "") ``` General Unique ID : 50439147245586729503220366852680709722 (0x25F239F5ACF8CA1EDA4E58F65369F65A) Complete name : Zettai Reido S04 SP 720p HDTV AAC H.264-NSBC.mkv Format : Matroska Format version : Version 4 File size : 2.90 GiB Duration : 1 h 31 min Overall bit rate : 4 530 kb/s Movie name : Zettai Reido S04 SP 720p HDTV AAC H.264-NSBC Encoded by : NoNe | NSBC Encoded date : UTC 2020-03-25 12:41:52 Writing application : mkvmerge v29.0.0 ('Like It Or Not') 64-bit Writing library : libebml v1.3.6 + libmatroska v1.4.9 Copyright : NSBC Comment : NoNe | NSBC DATE_RECORDED : 2020 NOTICE ME : SENPAI WEBSITE : NSBC.to Video ID : 1 Format : AVC Format/Info : Advanced Video Codec Format profile : High@L4.1 Format settings : CABAC / 9 Ref Frames Format settings, CABAC : Yes Format settings, Reference frames : 9 frames Codec ID : V_MPEG4/ISO/AVC Duration : 1 h 31 min Bit rate : 4 399 kb/s Width : 1 280 pixels Height : 720 pixels Display aspect ratio : 16:9 Frame rate mode : Constant Frame rate : 30.000 FPS Color space : YUV Chroma subsampling : 4:2:0 Bit depth : 8 bits Scan type : Progressive Bits/(Pixel*Frame) : 0.159 Stream size : 2.82 GiB (97%) Title : [NSBC] Default : Yes Forced : No Color range : Limited Color primaries : BT.709 Transfer characteristics : BT.709 Matrix coefficients : BT.709 Audio ID : 2 Format : AAC LC Format/Info : Advanced Audio Codec Low Complexity Codec ID : A_AAC-2 Duration : 1 h 31 min Bit rate : 128 kb/s Channel(s) : 2 channels Channel layout : L R Sampling rate : 48.0 kHz Frame rate : 46.875 FPS (1024 SPF) Compression mode : Lossy Stream size : 84.2 MiB (3%) Title : [NSBC] Language : Japanese Default : Yes Forced : No ```

File list

  • Zettai Reido S04 SP 720p HDTV AAC H.264-NSBC.mkv (2.9 GiB)