[NSBC] Arimura Kasumi no Satsukyu E01 [HDTV] [720p] [V2]

Category:
Date:
2020-03-25 00:54 UTC
Submitter:
Seeders:
6
Information:
TlNCQy50bw==
Leechers:
2
File size:
1.3 GiB
Completed:
616
Info hash:
08a3cc36609c9ea48e2f255dec394c464c453a4a
> ### v2 because previous one have some audio issue ![](http://img.topddl.net/images/2020/03/24/mv.jpg "") ![](http://img.topddl.net/images/2020/03/25/Arimura-Kasumi-no-Satsukyu-S01E01v2-720p-HDTV-AAC-H.264-NSBC.mkv.jpg "") ``` General Unique ID : 262781156408855245940019335512650013078 (0xC5B1CF4EB725DB4297EA2CEC045DD996) Complete name : Arimura Kasumi no Satsukyu S01E01v2 720p HDTV AAC H.264-NSBC.mkv Format : Matroska Format version : Version 4 File size : 1.35 GiB Duration : 41 min 24 s Overall bit rate : 4 655 kb/s Movie name : Arimura Kasumi no Satsukyu S01E01v2 720p HDTV AAC H.264-NSBC Encoded by : MoMo | NSBC Encoded date : UTC 2020-03-25 00:39:41 Writing application : mkvmerge v29.0.0 ('Like It Or Not') 64-bit Writing library : libebml v1.3.6 + libmatroska v1.4.9 Copyright : NSBC Comment : MoMo | NSBC DATE_RECORDED : 2020 WEBSITE : NSBC.to Video ID : 1 Format : AVC Format/Info : Advanced Video Codec Format profile : High@L4.1 Format settings : CABAC / 9 Ref Frames Format settings, CABAC : Yes Format settings, Reference frames : 9 frames Codec ID : V_MPEG4/ISO/AVC Duration : 41 min 24 s Bit rate : 4 524 kb/s Width : 1 280 pixels Height : 720 pixels Display aspect ratio : 16:9 Frame rate mode : Constant Frame rate : 30.000 FPS Color space : YUV Chroma subsampling : 4:2:0 Bit depth : 8 bits Scan type : Progressive Bits/(Pixel*Frame) : 0.164 Stream size : 1.31 GiB (97%) Title : [NSBC] Default : Yes Forced : No Color range : Limited Color primaries : BT.709 Transfer characteristics : BT.709 Matrix coefficients : BT.709 Audio ID : 2 Format : AAC LC Format/Info : Advanced Audio Codec Low Complexity Codec ID : A_AAC-2 Duration : 41 min 24 s Bit rate : 128 kb/s Channel(s) : 2 channels Channel layout : L R Sampling rate : 48.0 kHz Frame rate : 46.875 FPS (1024 SPF) Compression mode : Lossy Stream size : 38.0 MiB (3%) Title : [NSBC] Language : Japanese Default : Yes Forced : No ```

File list

  • Arimura Kasumi no Satsukyu S01E01v2 720p HDTV AAC H.264-NSBC.mkv (1.3 GiB)