[NSBC] Shinitai Yoru ni Kagitte E05 [WEBDL] [1080p]

Category:
Date:
2020-03-25 00:54 UTC
Submitter:
Seeders:
6
Information:
TlNCQy50bw==
Leechers:
2
File size:
346.7 MiB
Completed:
322
Info hash:
d7329ca56fac4124d1255e80efaa3a22f90c5c23
![](http://img.topddl.net/images/2020/03/01/ogp2.jpg "") ![](http://img.topddl.net/images/2020/03/25/Shinitai-Yoru-ni-Kagitte-S01E05-1080p-WEB-DL-AAC-H.264-NSBC.mkv.jpg "") ``` General Unique ID : 128879983588418823353190178386009160200 (0x60F561C84B7C6FA29C2310CC0D4C7A08) Complete name : Shinitai Yoru ni Kagitte S01E05 1080p WEB-DL AAC H.264-NSBC.mkv Format : Matroska Format version : Version 4 File size : 347 MiB Duration : 24 min 6 s Overall bit rate : 2 011 kb/s Movie name : Shinitai Yoru ni Kagitte S01E05 1080p WEB-DL AAC H.264-NSBC Encoded by : NoNe | NSBC Encoded date : UTC 2020-03-25 00:45:48 Writing application : mkvmerge v29.0.0 ('Like It Or Not') 64-bit Writing library : libebml v1.3.6 + libmatroska v1.4.9 Copyright : NSBC Comment : NoNe | NSBC DATE_RECORDED : 2020 NOTICE ME : SENPAI WEBSITE : NSBC.to Video ID : 1 Format : AVC Format/Info : Advanced Video Codec Format profile : High@L4 Format settings : CABAC / 4 Ref Frames Format settings, CABAC : Yes Format settings, Reference frames : 4 frames Codec ID : V_MPEG4/ISO/AVC Duration : 24 min 5 s Bit rate : 1 945 kb/s Width : 1 920 pixels Height : 1 080 pixels Display aspect ratio : 16:9 Frame rate mode : Constant Frame rate : 29.970 (30000/1001) FPS Color space : YUV Chroma subsampling : 4:2:0 Bit depth : 8 bits Scan type : Progressive Bits/(Pixel*Frame) : 0.031 Stream size : 335 MiB (97%) Title : [NSBC] Default : Yes Forced : No Audio ID : 2 Format : AAC LC Format/Info : Advanced Audio Codec Low Complexity Codec ID : A_AAC-2 Duration : 24 min 5 s Bit rate : 63.9 kb/s Channel(s) : 2 channels Channel layout : L R Sampling rate : 48.0 kHz Frame rate : 46.875 FPS (1024 SPF) Compression mode : Lossy Delay relative to video : -67 ms Stream size : 11.0 MiB (3%) Title : [NSBC] Language : Japanese Default : Yes Forced : No ```

File list

  • Shinitai Yoru ni Kagitte S01E05 1080p WEB-DL AAC H.264-NSBC.mkv (346.7 MiB)