[NSBC] Operation Z E02 [HDTV] [720p]

Category:
Date:
2020-03-24 10:03 UTC
Submitter:
Seeders:
9
Information:
TlNCQy50bw==
Leechers:
2
File size:
1.7 GiB
Completed:
692
Info hash:
fe21c13e8c705bd0b0f555010161969faf1a4866
![](http://img.topddl.net/images/2020/03/18/mv.jpg "") ![](http://img.topddl.net/images/2020/03/24/Operation-Z-S01E02-720p-HDTV-AAC-H.264-NSBC.mkv.jpg "") ``` General Unique ID : 138131698671712493267463970110603588520 (0x67EB328DA98161211C62A7C52C58F3A8) Complete name : Operation Z S01E02 720p HDTV AAC H.264-NSBC.mkv Format : Matroska Format version : Version 4 File size : 1.65 GiB Duration : 50 min 10 s Overall bit rate : 4 720 kb/s Movie name : Operation Z S01E02 720p HDTV AAC H.264-NSBC Encoded by : MoMo | NSBC Encoded date : UTC 2020-03-23 23:49:08 Writing application : mkvmerge v29.0.0 ('Like It Or Not') 64-bit Writing library : libebml v1.3.6 + libmatroska v1.4.9 Copyright : NSBC Comment : MoMo | NSBC DATE_RECORDED : 2020 WEBSITE : NSBC.to Video ID : 1 Format : AVC Format/Info : Advanced Video Codec Format profile : High@L4.1 Format settings : CABAC / 9 Ref Frames Format settings, CABAC : Yes Format settings, Reference frames : 9 frames Codec ID : V_MPEG4/ISO/AVC Duration : 50 min 10 s Bit rate : 4 589 kb/s Width : 1 280 pixels Height : 720 pixels Display aspect ratio : 16:9 Frame rate mode : Constant Frame rate : 30.000 FPS Color space : YUV Chroma subsampling : 4:2:0 Bit depth : 8 bits Scan type : Progressive Bits/(Pixel*Frame) : 0.166 Stream size : 1.61 GiB (97%) Default : Yes Forced : No Color range : Limited Color primaries : BT.709 Transfer characteristics : BT.709 Matrix coefficients : BT.709 Audio ID : 2 Format : AAC LC Format/Info : Advanced Audio Codec Low Complexity Codec ID : A_AAC-2 Duration : 50 min 9 s Bit rate : 128 kb/s Channel(s) : 2 channels Channel layout : L R Sampling rate : 48.0 kHz Frame rate : 46.875 FPS (1024 SPF) Compression mode : Lossy Delay relative to video : 4 ms Stream size : 46.1 MiB (3%) Language : Japanese Default : Yes Forced : No ```

File list

  • Operation Z S01E02 720p HDTV AAC H.264-NSBC.mkv (1.7 GiB)