[NSBC] Pareto no Gosan E03 [HDTV] [720p]

Category:
Date:
2020-03-24 10:03 UTC
Submitter:
Seeders:
14
Information:
TlNCQy50bw==
Leechers:
1
File size:
1.6 GiB
Completed:
554
Info hash:
7acd29823409397ce0b86c7444f6c7076cf8bad6
![](http://img.topddl.net/images/2020/03/10/mv.jpg "") ![](http://img.topddl.net/images/2020/03/23/Pareto-no-Gosan-S01E03-HDTV-720p-AAC-H.264-NSBC.mkv.jpg "") ``` General Unique ID : 199297990320314895213996589508492003958 (0x95EF6590D851748B36761EA74A200A76) Complete name : Pareto no Gosan S01E03 HDTV 720p AAC H.264-NSBC.mkv Format : Matroska Format version : Version 4 File size : 1.65 GiB Duration : 50 min 0 s Overall bit rate : 4 716 kb/s Movie name : Pareto no Gosan S01E03 HDTV 720p AAC H.264-NSBC Encoded by : MoMo | NSBC Encoded date : UTC 2020-03-23 09:40:46 Writing application : mkvmerge v29.0.0 ('Like It Or Not') 64-bit Writing library : libebml v1.3.6 + libmatroska v1.4.9 Copyright : NSBC Comment : MoMo | NSBC DATE_RECORDED : 2020 WEBSITE : NSBC.to Video ID : 1 Format : AVC Format/Info : Advanced Video Codec Format profile : High@L4.1 Format settings : CABAC / 9 Ref Frames Format settings, CABAC : Yes Format settings, Reference frames : 9 frames Codec ID : V_MPEG4/ISO/AVC Duration : 50 min 0 s Bit rate : 4 585 kb/s Width : 1 280 pixels Height : 720 pixels Display aspect ratio : 16:9 Frame rate mode : Constant Frame rate : 30.000 FPS Color space : YUV Chroma subsampling : 4:2:0 Bit depth : 8 bits Scan type : Progressive Bits/(Pixel*Frame) : 0.166 Stream size : 1.60 GiB (97%) Title : [NSBC] Default : Yes Forced : No Color range : Limited Color primaries : BT.709 Transfer characteristics : BT.709 Matrix coefficients : BT.709 Audio ID : 2 Format : AAC LC Format/Info : Advanced Audio Codec Low Complexity Codec ID : A_AAC-2 Duration : 50 min 0 s Bit rate : 128 kb/s Channel(s) : 2 channels Channel layout : L R Sampling rate : 48.0 kHz Frame rate : 46.875 FPS (1024 SPF) Compression mode : Lossy Stream size : 45.9 MiB (3%) Title : [NSBC] Language : Japanese Default : Yes Forced : No ```

File list

  • Pareto no Gosan S01E03 HDTV 720p AAC H.264-NSBC.mkv (1.6 GiB)