[NSBC] Chocolate Wars E11 [WEBDL] [720p]

Category:
Date:
2020-03-24 07:19 UTC
Submitter:
Seeders:
3
Information:
TlNCQy50bw==
Leechers:
3
File size:
535.4 MiB
Completed:
204
Info hash:
943ec6dae31f9e0b653588c3ba337ea37fa34310
> ### Only 720p stream available from the Source ![](http://img.topddl.net/images/2020/01/16/main.jpg "") ![](http://img.topddl.net/images/2020/03/24/Chocolate.Wars.S01E11.720p.WEB-DL.AAC.H.264-NSBC.mkv.jpg "") ``` General Unique ID : 161901674052384598399596592720435370745 (0x79CD20D2656C1E577E1C7AF227BE5AF9) Complete name : Chocolate.Wars.S01E11.720p.WEB-DL.AAC.H.264-NSBC.mkv Format : Matroska Format version : Version 4 File size : 535 MiB Duration : 24 min 0 s Overall bit rate : 3 119 kb/s Movie name : Chocolate.Wars.S01E11.720p.WEB-DL.AAC.H.264-NSBC Encoded by : NoNe | NSBC Encoded date : UTC 2020-03-23 09:47:54 Writing application : mkvmerge v29.0.0 ('Like It Or Not') 64-bit Writing library : libebml v1.3.6 + libmatroska v1.4.9 Copyright : NSBC Comment : NoNe | NSBC DATE_RECORDED : 2020 NOTICE ME : SENPAI WEBSITE : NSBC.to Video ID : 1 Format : AVC Format/Info : Advanced Video Codec Format profile : Main@L3.1 Format settings : CABAC / 3 Ref Frames Format settings, CABAC : Yes Format settings, Reference frames : 3 frames Format settings, GOP : M=1, N=30 Codec ID : V_MPEG4/ISO/AVC Duration : 23 min 59 s Bit rate : 2 988 kb/s Width : 1 280 pixels Height : 720 pixels Display aspect ratio : 16:9 Frame rate mode : Constant Frame rate : 29.970 (30000/1001) FPS Color space : YUV Chroma subsampling : 4:2:0 Bit depth : 8 bits Scan type : Progressive Bits/(Pixel*Frame) : 0.108 Stream size : 513 MiB (96%) Title : [NSBC] Default : Yes Forced : No Color range : Limited Color primaries : BT.709 Transfer characteristics : BT.709 Matrix coefficients : BT.709 Audio ID : 2 Format : AAC LC Format/Info : Advanced Audio Codec Low Complexity Codec ID : A_AAC-2 Duration : 24 min 0 s Bit rate : 128 kb/s Channel(s) : 2 channels Channel layout : L R Sampling rate : 48.0 kHz Frame rate : 46.875 FPS (1024 SPF) Compression mode : Lossy Stream size : 21.9 MiB (4%) Title : [NSBC] Language : Japanese Default : Yes Forced : No ```

File list

  • Chocolate.Wars.S01E11.720p.WEB-DL.AAC.H.264-NSBC.mkv (535.4 MiB)