My Holo Love S01 720p WEB-DL NF AAC H.265-IXD

Category:
Date:
2020-03-24 02:22 UTC
Submitter:
Seeders:
3
Information:
Leechers:
6
File size:
2.6 GiB
Completed:
57
Info hash:
e13a145437c55c496b845c71b2fd4774affa357d
Example Screenshot: [![4a12831321fde76c94492a14c7d04c1194f4e8a4.jpg](https://i.postimg.cc/jqZdMJ8W/4a12831321fde76c94492a14c7d04c1194f4e8a4.jpg)](https://postimg.cc/xqN2CqVY) ``` General Complete name : /indexdrama.com/My Holo Love S01E01 720p WEB-DL NF AAC H.265-IXD.mp4 Format : MPEG-4 Format profile : Base Media Codec ID : isom (isom/iso2/mp41) File size : 251 MiB Duration : 57 min 46 s Overall bit rate : 608 kb/s Encoded date : UTC 1904-01-01 00:00:00 Tagged date : UTC 1904-01-01 00:00:00 Writing application : Lavf58.29.100 Video ID : 1 Format : HEVC Format/Info : High Efficiency Video Coding Format profile : Main@L3.1@Main Codec ID : hev1 Codec ID/Info : High Efficiency Video Coding Duration : 57 min 45 s Bit rate : 475 kb/s Width : 1 280 pixels Height : 720 pixels Display aspect ratio : 16:9 Frame rate mode : Constant Frame rate : 23.976 (24000/1001) FPS Color space : YUV Chroma subsampling : 4:2:0 Bit depth : 8 bits Scan type : Progressive Bits/(Pixel*Frame) : 0.021 Stream size : 196 MiB (78%) Writing library : x265 3.2+35-acc5d16999e2:[Windows][GCC 9.2.1][64 bit] 8bit+10bit Encoding settings : cpuid=1049583 / frame-threads=8 / numa-pools=8 / wpp / no-pmode / no-pme / no-psnr / no-ssim / log-level=2 / input-csp=1 / input-res=1280x720 / interlace=0 / total-frames=0 / level-idc=0 / high-tier=1 / uhd-bd=0 / ref=3 / no-allow-non-conformance / no-repeat-headers / annexb / no-aud / no-hrd / info / hash=0 / no-temporal-layers / open-gop / min-keyint=23 / keyint=250 / gop-lookahead=0 / bframes=4 / b-adapt=2 / b-pyramid / bframe-bias=0 / rc-lookahead=20 / lookahead-slices=4 / scenecut=40 / hist-scenecut=0 / radl=0 / no-splice / no-intra-refresh / ctu=64 / min-cu-size=8 / no-rect / no-amp / max-tu-size=32 / tu-inter-depth=1 / tu-intra-depth=1 / limit-tu=0 / rdoq-level=0 / dynamic-rd=0.00 / no-ssim-rd / signhide / no-tskip / nr-intra=0 / nr-inter=0 / no-constrained-intra / strong-intra-smoothing / max-merge=3 / limit-refs=1 / no-limit-modes / me=1 / subme=2 / merange=57 / temporal-mvp / no-frame-dup / no-hme / weightp / no-weightb / no-analyze-src-pics / deblock=0:0 / sao / no-sao-non-deblock / rd=3 / selective-sao=4 / early-skip / rskip / no-fast-intra / no-tskip-fast / no-cu-lossless / b-intra / no-splitrd-skip / rdpenalty=0 / psy-rd=2.00 / psy-rdoq=0.00 / no-rd-refine / no-lossless / cbqpoffs=0 / crqpoffs=0 / rc=crf / crf=25.0 / qcomp=0.60 / qpstep=4 / stats-write=0 / stats-read=0 / ipratio=1.40 / pbratio=1.30 / aq-mode=2 / aq-strength=1.00 / cutree / zone-count=0 / no-strict-cbr / qg-size=32 / no-rc-grain / qpmax=69 / qpmin=0 / no-const-vbv / sar=1 / overscan=0 / videoformat=5 / range=0 / colorprim=2 / transfer=2 / colormatrix=2 / chromaloc=0 / display-window=0 / cll=0,0 / min-luma=0 / max-luma=255 / log2-max-poc-lsb=8 / vui-timing-info / vui-hrd-info / slices=1 / no-opt-qp-pps / no-opt-ref-list-length-pps / no-multi-pass-opt-rps / scenecut-bias=0.05 / hist-threshold=0.01 / no-opt-cu-delta-qp / no-aq-motion / no-hdr10 / no-hdr10-opt / no-dhdr10-opt / no-idr-recovery-sei / analysis-reuse-level=0 / analysis-save-reuse-level=0 / analysis-load-reuse-level=0 / scale-factor=0 / refine-intra=0 / refine-inter=0 / refine-mv=1 / refine-ctu-distortion=0 / no-limit-sao / ctu-info=0 / no-lowpass-dct / refine-analysis-type=0 / copy-pic=1 / max-ausize-factor=1.0 / no-dynamic-refine / no-single-sei / no-hevc-aq / no-svt / no-field / qp-adaptation-range=1.00 / no-scenecut-aware-qpconformance-window-offsets / right=0 / bottom=0 Encoded date : UTC 1904-01-01 00:00:00 Tagged date : UTC 1904-01-01 00:00:00 Color range : Limited Audio ID : 2 Format : AC-3 Format/Info : Audio Coding 3 Mode extension : CM (complete main) Format settings, Endianness : Big Codec ID : ac-3 Duration : 57 min 46 s Bit rate mode : Constant Bit rate : 128 kb/s Channel(s) : 2 channels Channel positions : Front: L R Sampling rate : 48.0 kHz Frame rate : 31.250 FPS (1536 spf) Bit depth : 16 bits Compression mode : Lossy Stream size : 52.9 MiB (21%) Title : Korean Language : Korean Default : Yes Alternate group : 1 Encoded date : UTC 1904-01-01 00:00:00 Tagged date : UTC 1904-01-01 00:00:00 ```

File list

  • My Holo Love
    • My Holo Love S01E01 720p WEB-DL NF AAC H.265-IXD.mp4 (251.4 MiB)
    • My Holo Love S01E02 720p WEB-DL NF AAC H.265-IXD.mp4 (199.2 MiB)
    • My Holo Love S01E03 720p WEB-DL NF AAC H.265-IXD.mp4 (184.9 MiB)
    • My Holo Love S01E04 720p WEB-DL NF AAC H.265-IXD.mp4 (201.1 MiB)
    • My Holo Love S01E05 720p WEB-DL NF AAC H.265-IXD.mp4 (209.6 MiB)
    • My Holo Love S01E06 720p WEB-DL NF AAC H.265-IXD.mp4 (229.5 MiB)
    • My Holo Love S01E07 720p WEB-DL NF AAC H.265-IXD.mp4 (221.1 MiB)
    • My Holo Love S01E08 720p WEB-DL NF AAC H.265-IXD.mp4 (219.7 MiB)
    • My Holo Love S01E09 720p WEB-DL NF AAC H.265-IXD.mp4 (213.5 MiB)
    • My Holo Love S01E10 720p WEB-DL NF AAC H.265-IXD.mp4 (206.5 MiB)
    • My Holo Love S01E11 720p WEB-DL NF AAC H.265-IXD.mp4 (237.2 MiB)
    • My Holo Love S01E12 720p WEB-DL NF AAC H.265-IXD.mp4 (279.5 MiB)
    • indexdrama.txt (38 Bytes)
thank you, for accepting the request, i love you guys, keep up the good work.