BTOOOM! (2012) [1080p x265 HEVC 10bit BluRay Dual Audio AAC] [Prof]

Category:
Date:
2020-03-20 03:25 UTC
Submitter:
Seeders:
0
Information:
No information.
Leechers:
0
File size:
5.9 GiB
Completed:
818
Info hash:
562c221cf4ac000790b57bc6b590dd4378f8d3b6
[![40977l.jpg](https://i.postimg.cc/gcNBQJQV/40977l.jpg)](https://postimg.cc/3W0BDKKN) Synopsis Ryouta Sakamoto is unemployed and lives with his mother, his only real achievement being that he is Japan's top player of the popular online video game Btooom! However, his peaceful life is about to change when he finds himself stranded on an island in the middle of nowhere, with a small green crystal embedded in his left hand and no memory of how he got there. To his shock, someone has decided to recreate the game he is so fond of in real life, with the stakes being life or death. Armed with a bag full of unique bombs known as "BIM," the players are tasked with killing seven of their fellow participants and taking their green crystals in order to return home. Initially condemning any form of violence, Ryouta is forced to fight when he realizes that many of the other players are not as welcoming as they may seem. Teaming up with Himiko, a fellow Btooom! player, they attempt to get off of the island together, coming closer and closer to the truth behind this contest of death. Information Type: TV Episodes: 12 Status: Finished Airing Aired: Oct 4, 2012 to Dec 20, 2012 Premiered: Fall 2012 Broadcast: Thursdays at 23:00 (JST) Producers: Sotsu, KlockWorx, flying DOG, Showgate Licensors: Sentai Filmworks Studios: Madhouse Source: Manga Genres: Action, Sci-Fi, Psychological, Seinen Duration: 24 min. per ep. Rating: R - 17+ (violence & profanity) [![Prof-S01-E01-START.png](https://i.postimg.cc/XNkgXYbr/Prof-S01-E01-START.png)](https://postimg.cc/PNNDRhNH) [![Prof-S01-E02-The-Bloody-High-School-Girl.png](https://i.postimg.cc/gkNFypvJ/Prof-S01-E02-The-Bloody-High-School-Girl.png)](https://postimg.cc/zVbc592Z) [![Prof-S01-E03-Survival.png](https://i.postimg.cc/qRqVZ54r/Prof-S01-E03-Survival.png)](https://postimg.cc/3ysck9kf) Format : Matroska Format version : Version 4 File size : 436 MiB Duration : 24 min 23 s Overall bit rate : 2 500 kb/s Encoded date : UTC 2020-03-15 03:07:09 Writing application : mkvmerge v29.0.0 ('Like It Or Not') 64-bit Writing library : libebml v1.3.6 + libmatroska v1.4.9 Writing frontend : StaxRip v2.0.0.0 Video ID : 1 Format : HEVC Format/Info : High Efficiency Video Coding Format profile : Main 10@L4@Main Codec ID : V_MPEGH/ISO/HEVC Duration : 24 min 22 s Bit rate : 1 935 kb/s Width : 1 920 pixels Height : 1 080 pixels Display aspect ratio : 16:9 Frame rate mode : Constant Frame rate : 23.976 (24000/1001) FPS Color space : YUV Chroma subsampling : 4:2:0 Bit depth : 10 bits Bits/(Pixel*Frame) : 0.039 Stream size : 337 MiB (77%) Writing library : x265 3.3+1-g554c887ac:[Windows][MSVC 1924][64 bit] 10bit Encoding settings : cpuid=1111039 / frame-threads=3 / numa-pools=12 / wpp / no-pmode / no-pme / no-psnr / no-ssim / log-level=2 / input-csp=1 / input-res=1920x1080 / interlace=0 / total-frames=35064 / level-idc=0 / high-tier=1 / uhd-bd=0 / ref=4 / no-allow-non-conformance / no-repeat-headers / annexb / no-aud / no-hrd / info / hash=0 / no-temporal-layers / open-gop / min-keyint=23 / keyint=250 / gop-lookahead=0 / bframes=8 / b-adapt=2 / b-pyramid / bframe-bias=0 / rc-lookahead=80 / lookahead-slices=6 / scenecut=40 / hist-scenecut=0 / radl=0 / no-splice / no-intra-refresh / ctu=64 / min-cu-size=8 / rect / no-amp / max-tu-size=32 / tu-inter-depth=1 / tu-intra-depth=1 / limit-tu=0 / rdoq-level=2 / dynamic-rd=0.00 / no-ssim-rd / signhide / no-tskip / nr-intra=0 / nr-inter=0 / no-constrained-intra / strong-intra-smoothing / max-merge=3 / limit-refs=3 / limit-modes / me=3 / subme=3 / merange=57 / temporal-mvp / no-frame-dup / no-hme / weightp / no-weightb / no-analyze-src-pics / deblock=0:0 / sao / no-sao-non-deblock / rd=4 / selective-sao=4 / no-early-skip / rskip / no-fast-intra / no-tskip-fast / no-cu-lossless / no-b-intra / no-splitrd-skip / rdpenalty=0 / psy-rd=2.00 / psy-rdoq=1.00 / no-rd-refine / no-lossless / cbqpoffs=0 / crqpoffs=0 / rc=crf / crf=19.0 / qcomp=0.60 / qpstep=4 / stats-write=0 / stats-read=0 / ipratio=1.40 / pbratio=1.30 / aq-mode=2 / aq-strength=0.80 / cutree / zone-count=0 / no-strict-cbr / qg-size=32 / no-rc-grain / qpmax=69 / qpmin=0 / no-const-vbv / sar=0 / overscan=0 / videoformat=5 / range=0 / colorprim=2 / transfer=2 / colormatrix=1 / chromaloc=0 / display-window=0 / cll=0,0 / min-luma=0 / max-luma=1023 / log2-max-poc-lsb=8 / vui-timing-info / vui-hrd-info / slices=1 / no-opt-qp-pps / no-opt-ref-list-length-pps / no-multi-pass-opt-rps / scenecut-bias=0.05 / hist-threshold=0.01 / no-opt-cu-delta-qp / no-aq-motion / no-hdr10 / no-hdr10-opt / no-dhdr10-opt / no-idr-recovery-sei / analysis-reuse-level=0 / analysis-save-reuse-level=0 / analysis-load-reuse-level=0 / scale-factor=0 / refine-intra=0 / refine-inter=0 / refine-mv=1 / refine-ctu-distortion=0 / no-limit-sao / ctu-info=0 / no-lowpass-dct / refine-analysis-type=0 / copy-pic=1 / max-ausize-factor=1.0 / no-dynamic-refine / no-single-sei / no-hevc-aq / no-svt / no-field / qp-adaptation-range=1.00 / no-scenecut-aware-qpconformance-window-offsets / right=0 / bottom=0 Default : Yes Forced : No Color range : Limited Matrix coefficients : BT.709 Audio #1 ID : 2 Format : AAC LC Format/Info : Advanced Audio Codec Low Complexity Codec ID : A_AAC-2 Duration : 24 min 22 s Bit rate : 277 kb/s Channel(s) : 2 channels Channel layout : L R Sampling rate : 48.0 kHz Frame rate : 46.875 FPS (1024 SPF) Compression mode : Lossy Delay relative to video : 20 ms Stream size : 48.3 MiB (11%) Language : English Default : No Forced : No Audio #2 ID : 3 Format : AAC LC Format/Info : Advanced Audio Codec Low Complexity Codec ID : A_AAC-2 Duration : 24 min 22 s Bit rate : 279 kb/s Channel(s) : 2 channels Channel layout : L R Sampling rate : 48.0 kHz Frame rate : 46.875 FPS (1024 SPF) Compression mode : Lossy Delay relative to video : 20 ms Stream size : 48.7 MiB (11%) Language : Japanese Default : No Forced : No Text #1 ID : 4 Format : PGS Muxing mode : zlib Codec ID : S_HDMV/PGS Codec ID/Info : Picture based subtitle format used on BDs/HD-DVDs Duration : 22 min 27 s Bit rate : 2 905 b/s Count of elements : 37 Stream size : 478 KiB (0%) Language : English Default : Yes Forced : No Text #2 ID : 5 Format : PGS Muxing mode : zlib Codec ID : S_HDMV/PGS Codec ID/Info : Picture based subtitle format used on BDs/HD-DVDs Duration : 24 min 6 s Bit rate : 27.8 kb/s Count of elements : 569 Stream size : 4.79 MiB (1%) Language : English Default : No Forced : No Menu 00:00:00.000 : en:Chapter 01 00:01:53.071 : en:Chapter 02 00:03:23.077 : en:Chapter 03 00:12:10.062 : en:Chapter 04 00:19:42.347 : en:Chapter 05 00:21:11.979 : en:Chapter 06 00:24:06.027 : en:Chapter 07 Source: [![51cx-Jjjx-CXL-SX342.jpg](https://i.postimg.cc/yd7vr4Tp/51cx-Jjjx-CXL-SX342.jpg)](https://postimg.cc/2qXQVtMn) Coming soon: Tales of Vesperia: The First Strike And You Thought There is Never a Girl Online? Claymore Mirai

File list

  • BTOOOM! (2012) [1080p x265 HEVC 10bit BluRay Dual Audio AAC] [Prof]
    • [Prof] S01E01 - START.mkv (436.1 MiB)
    • [Prof] S01E02 - The Bloody High School Girl.mkv (438.3 MiB)
    • [Prof] S01E03 - Survival.mkv (591.9 MiB)
    • [Prof] S01E04 - Best in the World.mkv (607.4 MiB)
    • [Prof] S01E05 - Attack.mkv (554.9 MiB)
    • [Prof] S01E06 - Night of Sacrifice.mkv (404.0 MiB)
    • [Prof] S01E07 - Virtual Bride.mkv (521.9 MiB)
    • [Prof] S01E08 - White Ghost.mkv (485.0 MiB)
    • [Prof] S01E09 - The Strongest Player.mkv (557.7 MiB)
    • [Prof] S01E10 - High Level.mkv (472.2 MiB)
    • [Prof] S01E11 - Revival.mkv (486.8 MiB)
    • [Prof] S01E12 - Bonds.mkv (481.7 MiB)
the synopsis sounds similar too battle royal which i really liked the novel. i have not seen this so ill check it out thanks prof
@prof you already post this long long ago is it the same or u change anything ?
Thank you for sharing!!

Prof (uploader)

User
@radydragoon if I redid something there's always different settings and better audio at least, I believe this only had english dub the first time too
@prof thanks prof
I need to finish the manga!
I'm not one to bash on others releases, but this encode has serious color and artifacting issues. some alternatives would be EMBER's release or my own upcoming release, which I intended as a replacement for this. (sorry for advertising but I just cannot recommend anyone to download this)