[60FPS] Ichimei (2011) [BDRip 1080p, AC3 5.1ch] [Japanese & Russian Dub] [Russian Sub]

Category:
Date:
2020-03-18 04:07 UTC
Submitter:
Seeders:
0
Information:
Leechers:
1
File size:
13.7 GiB
Completed:
106
Info hash:
bdfe3d4e670cce0a5a445c4eabdbcbec516da67c
![](http://i65.fastpic.ru/big/2014/1103/9e/5f54bfae98cfd9019c1354a83f77ba9e.png) ___ __Duration:__ 2h 07m __Codec:__ MPEG4/ISO/AVC/H.264 __Format:__ MKV __Video:__ 1920x800 (2.40:1), 14000 kbps, 59,940 fps, 0,152 bpp __Аudio 1:__ AC3 / 5.1 / 48 kHz / 640 kbps / 16 bit | Многоголосый, закадровый | Russian __Аudio 2:__ AC3 / 5.1 / 48 kHz / 640 kbps / 16 bit | Japanese __Subtitle:__ Russian SRT __Mediainfo:__ ``` General Unique ID : 190911096188536438565326865611360521497 (0x8FA023C27F138EEAB8B34A277BE34D19) Complete name : A:1080p 60fpsХаракири 1080p 60fps.mkv Format : Matroska Format version : Version 4 / Version 2 File size : 13.7 GiB Duration : 2h 7mn Overall bit rate : 15.3 Mbps Encoded date : UTC 2014-11-03 17:49:02 Writing application : mkvmerge v6.9.1 ('Blue Panther') 64bit built on Apr 18 2014 18:23:38 Writing library : libebml v1.3.0 + libmatroska v1.4.1 Attachment : Yes Video ID : 1 Format : AVC Format/Info : Advanced Video Codec Format profile : High@L4.1 Format settings, CABAC : Yes Format settings, ReFrames : 4 frames Codec ID : V_MPEG4/ISO/AVC Duration : 2h 7mn Bit rate : 14.0 Mbps Width : 1 920 pixels Height : 800 pixels Display aspect ratio : 2.40:1 Frame rate : 59.940 fps Color space : YUV Chroma subsampling : 4:2:0 Bit depth : 8 bits Scan type : Progressive Bits/(Pixel*Frame) : 0.152 Stream size : 12.2 GiB (90%) Title : Tiberiumsun69 R.G HD-FIlms Writing library : x264 core 130 r2273 b3065e6 Encoding settings : cabac=1 / ref=4 / deblock=1:-1:-1 / analyse=0x3:0 / me=umh / subme=9 / psy=1 / psy_rd=1.00:0.00 / mixed_ref=1 / me_range=44 / chroma_me=0 / trellis=2 / 8x8dct=1 / cqm=0 / deadzone=21,11 / fast_pskip=0 / chroma_qp_offset=-2 / threads=12 / lookahead_threads=1 / sliced_threads=0 / nr=0 / decimate=0 / interlaced=0 / bluray_compat=0 / constrained_intra=0 / bframes=5 / b_pyramid=2 / b_adapt=2 / b_bias=0 / direct=3 / weightb=1 / open_gop=0 / weightp=2 / keyint=250 / keyint_min=59 / scenecut=40 / intra_refresh=0 / rc_lookahead=60 / rc=2pass / mbtree=1 / bitrate=14000 / ratetol=1.0 / qcomp=0.80 / qpmin=0 / qpmax=69 / qpstep=4 / cplxblur=20.0 / qblur=0.5 / ip_ratio=1.40 / aq=1:0.80 Language : English Default : Yes Forced : No Audio #1 ID : 2 Format : AC-3 Format/Info : Audio Coding 3 Mode extension : CM (complete main) Codec ID : A_AC3 Duration : 2h 7mn Bit rate mode : Constant Bit rate : 640 Kbps Channel(s) : 6 channels Channel positions : Front: L C R, Side: L R, LFE Sampling rate : 48.0 KHz Bit depth : 16 bits Compression mode : Lossy Stream size : 586 MiB (4%) Title : Многоголосый, закадровый Language : Russian Default : Yes Forced : No Audio #2 ID : 3 Format : AC-3 Format/Info : Audio Coding 3 Mode extension : CM (complete main) Codec ID : A_AC3 Duration : 2h 7mn Bit rate mode : Constant Bit rate : 640 Kbps Channel(s) : 6 channels Channel positions : Front: L C R, Side: L R, LFE Sampling rate : 48.0 KHz Bit depth : 16 bits Compression mode : Lossy Stream size : 586 MiB (4%) Title : Оригинал Language : Japanese Default : No Forced : No Text ID : 4 Format : UTF-8 Codec ID : S_TEXT/UTF8 Codec ID/Info : UTF-8 Plain Text Title : Полные Language : Russian Default : No Forced : No Menu 00:00:00.000 : en:Chapter 1 00:09:19.295 : en:Chapter 2 00:18:56.580 : en:Chapter 3 00:32:37.734 : en:Chapter 4 00:39:47.663 : en:Chapter 5 00:46:50.878 : en:Chapter 6 00:52:15.035 : en:Chapter 7 01:01:21.247 : en:Chapter 8 01:09:24.814 : en:Chapter 9 01:18:38.492 : en:Chapter 10 01:26:36.303 : en:Chapter 11 01:35:19.117 : en:Chapter 12 01:39:21.734 : en:Chapter 13 01:46:39.213 : en:Chapter 14 01:56:10.825 : en:Chapter 15 02:04:06.551 : en:Chapter 16 02:07:58.783 : en:Chapter 17

File list

  • Харакири 1080p 60fps.mkv (13.7 GiB)