[60FPS] Hong hai xing dong (Operation Red Sea) (2018) [BDRip 1080p, AC3 2.0ch] [Russian Dub] [English Sub]

Category:
Date:
2020-03-18 04:01 UTC
Submitter:
Seeders:
0
Information:
Leechers:
0
File size:
22.5 GiB
Completed:
16
Info hash:
42a8dbff365063f21d1108f664ed88438d56aaf8
![](https://60-fps.org/data/pictures/2/50a7cd148f311b276489c5d5d77b4d71.jpg) ___ __Duration:__ 2h 18m __Codec:__ MPEG4/ISO/AVC/H.264 __Format:__ MKV __Video:__ 1920 x 800 (2.400) | 60.000 fps | 23.0 Мбит/сек __Аudio:__ AC3 | 2.0 | 48 kHz | 192 kbps | 16 bit | Любительский двухголосый - den904 & DeadSno | __Subtitle:__ English SRT __Mediainfo:__ ``` Видео Идентификатор : 1 Формат : AVC Формат/Информация : Advanced Video Codec Профиль формата : Main@L4.1 Настройки формата : CABAC / 4 Ref Frames Параметр CABAC формата : Да Параметр RefFrames формата : 4 кадра Режим смешивания : Header stripping Идентификатор кодека : V_MPEG4/ISO/AVC Продолжительность : 2 ч. 18 м. Битрейт : 23,0 Мбит/сек Ширина : 1920 пикселей Высота : 800 пикселей Соотношение сторон : 2,40:1 Режим частоты кадров : Постоянный Частота кадров : 60,000 кадров/сек Цветовое пространство : YUV Субдискретизация насыщенности : 4:2:0 Битовая глубина : 8 бит Тип развёртки : Прогрессивная Бит/(Пиксели*Кадры) : 0.250 Размер потока : 21,8 Гбайт (97%) Заголовок : www.60-fps.org Библиотека кодирования : x264 core 155 r2901 7d0ff22 Настройки программы : cabac=1 / ref=3 / deblock=1:-3:-3 / analyse=0x1:0x111 / me=hex / subme=7 / psy=1 / psy_rd=1.00:0.25 / mixed_ref=1 / me_range=16 / chroma_me=1 / trellis=1 / 8x8dct=0 / cqm=0 / deadzone=6,6 / fast_pskip=1 / chroma_qp_offset=-4 / threads=12 / lookahead_threads=2 / sliced_threads=0 / nr=0 / decimate=0 / interlaced=0 / bluray_compat=0 / constrained_intra=0 / bframes=3 / b_pyramid=2 / b_adapt=1 / b_bias=0 / direct=1 / weightb=1 / open_gop=0 / weightp=2 / keyint=600 / keyint_min=59 / scenecut=40 / intra_refresh=0 / rc_lookahead=40 / rc=2pass / mbtree=1 / bitrate=22999 / ratetol=1.0 / qcomp=0.80 / qpmin=0 / qpmax=69 / qpstep=4 / cplxblur=20.0 / qblur=0.5 / vbv_maxrate=50000 / vbv_bufsize=62500 / nal_hrd=none / filler=0 / ip_ratio=1.10 / aq=1:0.50 Default : Да Forced : Нет Аудио Идентификатор : 2 Формат : AC-3 Формат/Информация : Audio Coding 3 Режим смешивания : Header stripping Идентификатор кодека : A_AC3 Продолжительность : 2 ч. 18 м. Вид битрейта : Постоянный Битрейт : 192 Кбит/сек Каналы : 2 канала Расположение каналов : Front: L R Частота : 48,0 КГц Частота кадров : 31,250 кадров/сек (1536 SPF) Битовая глубина : 16 бит Метод сжатия : С потерями Размер потока : 191 Мбайт (1%) Заголовок : Любительский двухголосый - den904 & DeadSno Язык : Russian ServiceKind/String : Complete Main Default : Да Forced : Нет Текст Идентификатор : 3 Формат : UTF-8 Идентификатор кодека : S_TEXT/UTF8 Идентификатор кодека/Информация : UTF-8 Plain Text Заголовок : Full Язык : English Default : Нет Forced : Нет Меню 00:00:00.000 : en:Chapter 01 00:13:45.208 : en:Chapter 02 00:21:00.083 : en:Chapter 03 00:30:04.791 : en:Chapter 04 00:43:06.791 : en:Chapter 05 00:50:28.291 : en:Chapter 06 01:01:29.666 : en:Chapter 07 01:14:04.583 : en:Chapter 08 01:21:09.041 : en:Chapter 09 01:33:48.458 : en:Chapter 10 01:42:31.416 : en:Chapter 11 01:52:23.625 : en:Chapter 12 02:01:09.041 : en:Chapter 13 02:16:05.583 : en:Chapter 14

File list

  • Операция в Красном море (2018) BDRip 1080p_60 fps.mkv (22.5 GiB)