Kaguya-sama wa Kokurasetai: Tensai-tachi no Renai Zunousen (2019) [1080p][BluRay][DTS5.1][x264]-zdzdz

Category:
Date:
2020-03-17 04:03 UTC
Submitter:
Anonymous
Seeders:
2
Information:
No information.
Leechers:
0
File size:
10.1 GiB
Completed:
1741
Info hash:
a0e6af650d6ab473c4498b9e58ca2c8c2fed62a4
General Unique ID : 199228622523355158614560961727798159829 (0x95E2097827C4D8A5AE0C562EC197A9D5) Complete name : Kaguya-sama.Love.Is.War.2019.1080p.BluRay.DTS5.1.x264-zdzdz.mkv Format : Matroska Format version : Version 4 File size : 10.1 GiB Duration : 1 h 52 min Overall bit rate : 12.9 Mb/s Encoded date : UTC 2020-03-16 20:02:15 Writing application : mkvmerge v44.0.0 ('Domino') 64-bit Writing library : libebml v1.3.10 + libmatroska v1.5.2 Video ID : 1 Format : AVC Format/Info : Advanced Video Codec Format profile : High@L5.1 Format settings : CABAC / 11 Ref Frames Format settings, CABAC : Yes Format settings, Reference frames : 11 frames Codec ID : V_MPEG4/ISO/AVC Duration : 1 h 52 min Bit rate : 10.6 Mb/s Width : 1 920 pixels Height : 1 040 pixels Display aspect ratio : 1.85:1 Frame rate mode : Constant Frame rate : 23.976 (24000/1001) FPS Color space : YUV Chroma subsampling : 4:2:0 Bit depth : 8 bits Scan type : Progressive Bits/(Pixel*Frame) : 0.221 Stream size : 8.31 GiB (82%) Title : Encoded by zdzdz Writing library : x264 core 157 r2969 d4099dd Encoding settings : cabac=1 / ref=11 / deblock=1:-1:-1 / analyse=0x3:0x133 / me=umh / subme=11 / psy=1 / psy_rd=1.00:0.00 / mixed_ref=1 / me_range=32 / chroma_me=1 / trellis=2 / 8x8dct=1 / cqm=0 / deadzone=21,11 / fast_pskip=1 / chroma_qp_offset=-2 / threads=24 / lookahead_threads=6 / sliced_threads=0 / nr=0 / decimate=1 / interlaced=0 / bluray_compat=0 / constrained_intra=0 / bframes=10 / b_pyramid=2 / b_adapt=2 / b_bias=5 / direct=3 / weightb=1 / open_gop=0 / weightp=2 / keyint=240 / keyint_min=23 / scenecut=40 / intra_refresh=0 / rc_lookahead=40 / rc=2pass / mbtree=1 / bitrate=10599 / ratetol=1.0 / qcomp=0.60 / qpmin=0 / qpmax=69 / qpstep=4 / cplxblur=20.0 / qblur=0.5 / vbv_maxrate=240000 / vbv_bufsize=240000 / nal_hrd=none / filler=0 / ip_ratio=1.40 / aq=2:0.80 Language : Japanese Default : Yes Forced : No Audio #1 ID : 2 Format : DTS Format/Info : Digital Theater Systems Codec ID : A_DTS Duration : 1 h 52 min Bit rate mode : Constant Bit rate : 1 509 kb/s Channel(s) : 6 channels Channel layout : C L R Ls Rs LFE Sampling rate : 48.0 kHz Frame rate : 93.750 FPS (512 SPF) Bit depth : 24 bits Compression mode : Lossy Stream size : 1.18 GiB (12%) Title : DTS 5.1 Language : Japanese Default : Yes Forced : No Audio #2 ID : 3 Format : DTS Format/Info : Digital Theater Systems Codec ID : A_DTS Duration : 1 h 52 min Bit rate mode : Constant Bit rate : 768 kb/s Channel(s) : 2 channels Channel layout : L R Sampling rate : 48.0 kHz Frame rate : 93.750 FPS (512 SPF) Bit depth : 24 bits Compression mode : Lossy Stream size : 617 MiB (6%) Title : DTS 2.0 Language : Japanese Default : No Forced : No Menu 00:00:00.000 : :Chapter 01 00:03:50.939 : :Chapter 02 00:11:12.714 : :Chapter 03 00:18:46.167 : :Chapter 04 00:21:19.695 : :Chapter 05 00:27:14.883 : :Chapter 06 00:32:33.910 : :Chapter 07 00:37:00.802 : :Chapter 08 00:43:39.033 : :Chapter 09 00:49:39.101 : :Chapter 10 00:56:41.565 : :Chapter 11 01:04:32.952 : :Chapter 12 01:09:11.064 : :Chapter 13 01:13:55.306 : :Chapter 14 01:17:45.619 : :Chapter 15 01:23:04.396 : :Chapter 16 01:27:44.009 : :Chapter 17 01:43:19.026 : :Chapter 18 01:48:47.396 : :Chapter 19 ![](https://i.imgur.com/Vcvb8mE.jpg)

File list

  • Kaguya-sama.Love.Is.War.2019.1080p.BluRay.DTS5.1.x264-zdzdz.mkv (10.1 GiB)
holy shit thanks bruh
shems ~ finally ~ wait for the subs ~
Damn.... Thanks!
c'mon frankrx2... do the translation please
Does anyone have eng subtitle links?
hope there is slow internet friendly version..
720p version: https://nyaa.si/view/1230472
Still waiting for English sub
Subtitles here! https://www.d-addicts.com/forums/viewtopic.php?f=13&t=165197
@xmikachuu , can you upload in MEGA or GDrive ?
@xmikachuu, yes please
ive checked it and its unavailable
can someone eng sub this :<
I just found the english sub on subscene: https://subscene.com/subtitles/kaguya-sama-love-is-war-2019/english/2184179
thank you @val_gates
Where i found the subtitles?
Subs here: https://subscene.com/subtitles/kaguya-sama-love-is-war