Tokyo Ghoul S (2019) [1080p][BluRay][x264][DTS] [WiKi]

Category:
Date:
2020-02-19 02:00 UTC
Submitter:
Anonymous
Seeders:
4
Information:
No information.
Leechers:
0
File size:
8.5 GiB
Completed:
797
Info hash:
c7f72f19c057840761facff39a4e417f4de82fbb
General Unique ID : 135411699478895330497116661857075463198 (0x65DF583D4147234BF4BCB8CA0836041E) Complete name : Tokyo.Ghoul.S.2019.1080p.BluRay.x264.DTS-WiKi.mkv Format : Matroska Format version : Version 4 File size : 8.49 GiB Duration : 1 h 41 min Overall bit rate : 12.0 Mb/s Movie name : Jubowo @ WiKi Encoded date : UTC 2020-02-14 20:05:21 Writing application : mkvmerge v42.0.0 ('Overtime') 64-bit Writing library : libebml v1.3.10 + libmatroska v1.5.2 Attachments : DFPHuaZongW5-B5 1.0.2005.12.28.ttf / 汉仪秀英体繁.ttf Video ID : 1 Format : AVC Format/Info : Advanced Video Codec Format profile : High@L4.1 Format settings : CABAC / 5 Ref Frames Format settings, CABAC : Yes Format settings, Reference frames : 5 frames Codec ID : V_MPEG4/ISO/AVC Duration : 1 h 41 min Bit rate : 10.5 Mb/s Width : 1 920 pixels Height : 802 pixels Display aspect ratio : 2.40:1 Frame rate mode : Constant Frame rate : 23.976 (24000/1001) FPS Color space : YUV Chroma subsampling : 4:2:0 Bit depth : 8 bits Scan type : Progressive Bits/(Pixel*Frame) : 0.284 Stream size : 7.41 GiB (87%) Writing library : x264 core 129 r2245+704+36 8e61944 tMod+MixAQ [8-bit@4:2:0 X86_64] Encoding settings : cabac=1 / ref=5 / deblock=1:-3:-3 / analyse=0x3:0x133 / me=umh / subme=11 / psy=1 / fade_compensate=0.00 / psy_rd=1.00:0.10 / mixed_ref=1 / me_range=32 / chroma_me=1 / trellis=2 / 8x8dct=1 / cqm=0 / deadzone=21,11 / fast_pskip=0 / chroma_qp_offset=-3 / threads=18 / lookahead_threads=3 / sliced_threads=0 / nr=0 / decimate=0 / interlaced=0 / bluray_compat=0 / constrained_intra=0 / fgo=0 / bframes=10 / b_pyramid=2 / b_adapt=2 / b_bias=0 / direct=3 / weightb=1 / open_gop=0 / weightp=2 / keyint=250 / keyint_min=23 / scenecut=40 / intra_refresh=0 / rc=2pass / mbtree=0 / bitrate=10478 / ratetol=1.0 / qcomp=0.70 / qpmin=0 / qpmax=69 / qpstep=4 / cplxblur=20.0 / qblur=0.5 / ip_ratio=1.40 / pb_ratio=1.30 / aq=1 / aq-strength=0.90 / aq-sensitivity=10.00 / aq-ifactor=1.00 / aq-pfactor=1.00 / aq-bfactor=1.00 / aq2=0 Language : Japanese Default : Yes Forced : No Audio ID : 2 Format : DTS Format/Info : Digital Theater Systems Codec ID : A_DTS Duration : 1 h 41 min Bit rate mode : Constant Bit rate : 1 509 kb/s Channel(s) : 6 channels Channel layout : C L R Ls Rs LFE Sampling rate : 48.0 kHz Frame rate : 93.750 FPS (512 SPF) Bit depth : 24 bits Compression mode : Lossy Stream size : 1.07 GiB (13%) Language : Japanese Default : Yes Forced : No Text ID : 3 Format : ASS Codec ID : S_TEXT/ASS Codec ID/Info : Advanced Sub Station Alpha Duration : 1 h 36 min Bit rate : 52 b/s Count of elements : 768 Compression mode : Lossless Stream size : 37.3 KiB (0%) Language : Chinese Default : Yes Forced : No Menu 00:00:00.000 : en:第 01 章 00:07:20.940 : en:第 02 章 00:16:33.075 : en:第 03 章 00:28:46.683 : en:第 04 章 00:35:24.497 : en:第 05 章 00:45:00.989 : en:第 06 章 01:01:23.262 : en:第 07 章 01:31:12.758 : en:第 08 章 01:41:24.077 : en:第 09 章 ![](https://i.imgur.com/2FFHUEB.jpg)

File list

  • Tokyo.Ghoul.S.2019.1080p.BluRay.x264.DTS-WiKi.mkv (8.5 GiB)