[JimmyThicc] Like a Dragon (Ryu ga Gotoku / Yakuza) (2007) [720p] [BD]

Category:
Date:
2020-02-18 22:09 UTC
Submitter:
Seeders:
9
Information:
No information.
Leechers:
0
File size:
2.4 GiB
Completed:
1178
Info hash:
74f716d78a0003d2fe94f326f3b797b0a14598cc
![alt text](https://i.postimg.cc/Hs9j09kv/Like-a-Dragon-2007-720p-BD-mp4-thumbs-2020-02-18-12-39-04.jpg "Thumbnails") Reupload because I messed up the files in the other one, same as the previous just you can actually finished downloading it. Bluray version of the live action adaptation of Yakuza 1 or Ryu ga gotoku from the year 2007. Bluray rip by Shiniori and subtitles by BIRD, repack by JimmyThiccy. Original video file name: Like a Dragon 2007 720p BluRay x264 AAC-Shiniori Original subtitle file name: Like a Dragon 2007 m720p BluRay x264-BiRD I was going to retime those shitty subs that have Kiryu’s name as RYU but I found these that have proper names and timings so it all worked out. General Format : MPEG-4 Format profile : Base Media Codec ID : isom (isom/avc1) File size : 2.42 GiB Duration : 1 h 50 min Overall bit rate mode : Variable Overall bit rate : 3 154 kb/s Encoded date : UTC 2013-03-25 04:00:09 Tagged date : UTC 2013-03-25 04:00:09 Video ID : 1 Format : AVC Format/Info : Advanced Video Codec Format profile : High@L4.1 Format settings : CABAC / 3 Ref Frames Format settings, CABAC : Yes Format settings, Reference fra : 3 frames Codec ID : avc1 Codec ID/Info : Advanced Video Coding Duration : 1 h 50 min Bit rate : 3 000 kb/s Maximum bit rate : 9 692 kb/s Width : 1 280 pixels Height : 696 pixels Display aspect ratio : 1.85:1 Frame rate mode : Constant Frame rate : 23.976 (24000/1001) FPS Color space : YUV Chroma subsampling : 4:2:0 Bit depth : 8 bits Scan type : Progressive Bits/(Pixel*Frame) : 0.140 Stream size : 2.27 GiB (94%) Writing library : x264 core 65 r999kMod cc51047 Encoding settings : cabac=1 / ref=3 / deblock=1:0:0 / analyse=0x3:0x133 / me=umh / subme=6 / psy_rd=1.0:0.0 / mixed_ref=1 / me_range=16 / chroma_me=1 / trellis=1 / 8x8dct=1 / cqm=0 / deadzone=21,11 / chroma_qp_offset=-2 / threads=2 / thread_queue=2 / nr=0 / decimate=1 / mbaff=0 / bframes=3 / b_pyramid=1 / b_adapt=1 / b_bias=0 / direct=1 / wpredb=1 / keyint=250 / keyint_min=25 / scenecut=40(pre) / rc=abr / bitrate=3000 / ratetol=1.0 / qcomp=0.60 / qpmin=10 / qpmax=51 / qpstep=4 / ip_ratio=1.40 / pb_ratio=1.30 / aq=1:1.00 Encoded date : UTC 2013-03-25 04:00:09 Tagged date : UTC 2013-03-25 04:03:41 Codec configuration box : avcC Audio ID : 2 Format : AAC LC Format/Info : Advanced Audio Codec Low Complexity Codec ID : mp4a-40-2 Duration : 1 h 50 min Bit rate mode : Variable Bit rate : 192 kb/s Maximum bit rate : 255 kb/s Channel(s) : 2 channels Channel layout : L R Sampling rate : 48.0 kHz Frame rate : 46.875 FPS (1024 SPF) Compression mode : Lossy Stream size : 153 MiB (6%) Encoded date : UTC 2013-03-25 04:03:30 Tagged date : UTC 2013-03-25 04:03:41 http://asianwiki.com/Like_a_Dragon

File list

  • Like a Dragon (2007) [720p] [BD]
    • Information.txt (2.5 KiB)
    • Like a Dragon (2007) [720p] [BD].mp4 (2.4 GiB)
    • Like a Dragon (2007) [720p] [BD].mp4_thumbs_[2020.02.18_12.39.04].jpg (435.3 KiB)
    • Like a Dragon (2007) [720p] [BD]_English.srt (61.5 KiB)
thanks for the movie. do you have plan to upload the tv dramas ? https://mydramalist.com/2113-kurohyo-ryu-ga-gotoku-shinsho https://mydramalist.com/4320-kurohyou-2-ryu-ga-gotoku-ashura-hen

JimmyThicc (uploader)

User
I will try to find them subbed, most likely to find them raw, but I will comment here again if I find them

JimmyThicc (uploader)

User
@weekatana Here they are: https://nyaa.si/view/1222045
thank you so much @JimmyThicc
Thanks for uploading this! The subtitles are pretty messed up timing wise (they start out 1 second too slow and end up becoming too fast over the course of the video) but it's still watchable
The subtitles really need to be retimed; early in the movie (the first half-hour) you can set the to be 1.5 seconds faster and it works perfectly, but after that? the rate is completely inconsistent. Also, as a fan of the series, the removal of the "-chan" from Majima's dialogue disappoints me. They keep it in the games, after all.
for those who are looking for subtitles that are actually timed properly and also contain stuff like "Kiryu-chan", look no further than this here srt file. https://www.opensubtitles.com/en/subtitles/yakuza-like-a-dragon-2007-1080p-fra-blu-ray-avc-dts-hd-ma-5-1-adblue also useful for those who wish to translate the movie.