[NSBC] Pornographer E02 [WEBDL] [1080p]

Category:
Date:
2020-02-17 00:22 UTC
Submitter:
Seeders:
6
Information:
TlNCQy50bw==
Leechers:
2
File size:
265.8 MiB
Completed:
262
Info hash:
6ff50ab650ab117cc7ba9c17577dc95b9e7b76ed
> ### Subtitle: English > ### From Viki ![Posters](http://img.topddl.net/images/2020/02/17/E382B9E382AFE383AAE383BCE383B3E382B7E383A7E38383E38388-2018-10-01-17.33.53.jpg "") ![Thumbnails](http://img.topddl.net/images/2020/02/17/Pornographer.S01E02.1080p.WEB-DL.AAC.x264-NSBC.mkv.jpg "") ``` General Unique ID : 300088434428381827851881838539615818434 (0xE1C2EE2078F3F5AD956F0DB36458D2C2) Complete name : Pornographer.S01E02.1080p.WEB-DL.AAC.x264-NSBC.mkv Format : Matroska Format version : Version 4 File size : 266 MiB Duration : 23 min 30 s Overall bit rate : 1 581 kb/s Movie name : Pornographer.S01E02.1080p.WEB-DL.AAC.x264-NSBC Encoded by : NoNe | NSBC Encoded date : UTC 2020-02-17 00:16:18 Writing application : mkvmerge v29.0.0 ('Like It Or Not') 64-bit Writing library : libebml v1.3.6 + libmatroska v1.4.9 Copyright : NSBC Comment : NoNe | NSBC NOTICE ME : SENPAI WEBSITE : NSBC.to Video ID : 1 Format : AVC Format/Info : Advanced Video Codec Format profile : High@L4 Format settings : CABAC / 4 Ref Frames Format settings, CABAC : Yes Format settings, Reference frames : 4 frames Codec ID : V_MPEG4/ISO/AVC Duration : 23 min 29 s Bit rate : 1 390 kb/s Width : 1 920 pixels Height : 1 080 pixels Display aspect ratio : 16:9 Frame rate mode : Constant Frame rate : 30.000 FPS Color space : YUV Chroma subsampling : 4:2:0 Bit depth : 8 bits Scan type : Progressive Bits/(Pixel*Frame) : 0.022 Stream size : 233 MiB (88%) Title : [NSBC] Writing library : x264 core 148 Encoding settings : cabac=1 / ref=3 / deblock=1:0:0 / analyse=0x3:0x113 / me=umh / subme=10 / psy=1 / psy_rd=1.00:0.00 / mixed_ref=1 / me_range=24 / chroma_me=1 / trellis=2 / 8x8dct=1 / cqm=0 / deadzone=21,11 / fast_pskip=1 / chroma_qp_offset=-2 / threads=12 / lookahead_threads=1 / sliced_threads=0 / nr=0 / decimate=1 / interlaced=0 / bluray_compat=0 / constrained_intra=0 / bframes=3 / b_pyramid=2 / b_adapt=2 / b_bias=0 / direct=1 / weightb=1 / open_gop=0 / weightp=2 / keyint=150 / keyint_min=76 / scenecut=0 / intra_refresh=0 / rc_lookahead=60 / rc=2pass / mbtree=1 / bitrate=1390 / ratetol=1.0 / qcomp=0.60 / qpmin=0 / qpmax=69 / qpstep=4 / cplxblur=20.0 / qblur=0.5 / vbv_maxrate=3900 / vbv_bufsize=4170 / nal_hrd=none / filler=0 / ip_ratio=1.40 / aq=1:1.00 Default : Yes Forced : No Audio ID : 2 Format : AAC LC Format/Info : Advanced Audio Codec Low Complexity Codec ID : A_AAC-2 Duration : 23 min 30 s Bit rate : 192 kb/s Channel(s) : 2 channels Channel layout : L R Sampling rate : 48.0 kHz Frame rate : 46.875 FPS (1024 SPF) Compression mode : Lossy Delay relative to video : -67 ms Stream size : 32.3 MiB (12%) Title : [NSBC] Language : Japanese Default : Yes Forced : No Text ID : 3 Format : UTF-8 Codec ID : S_TEXT/UTF8 Codec ID/Info : UTF-8 Plain Text Duration : 23 min 24 s Bit rate : 49 b/s Count of elements : 269 Stream size : 8.44 KiB (0%) Title : [NSBC] Language : English Default : Yes Forced : No ```

File list

  • Pornographer.S01E02.1080p.WEB-DL.AAC.x264-NSBC.mkv (265.8 MiB)