[NSBC] First Love / Hatsukoi / 初恋 2019 [BluRay] [1080p]

Category:
Date:
2020-02-16 10:00 UTC
Submitter:
Seeders:
5
Information:
TlNCQy50bw==
Leechers:
8
File size:
11.7 GiB
Completed:
876
Info hash:
aa3a97f84349fbd5ee0f32812a95345cd2f1f323
![](http://img.topddl.net/images/2020/02/16/MV5BODg4MDBmY2MtNzg1Yy00ZTc0LWI0ZjgtZmI0ZDRiYTAxMmM3XkEyXkFqcGdeQXVyNjU1NzU3MzE._V1_.jpg "") ![](http://img.topddl.net/images/2020/02/16/poster.jpg "") ![](http://img.topddl.net/images/2020/02/16/First.Love.2019.1080p.BluRay.DTS.x264-NSBC.mkv.jpg "") ``` General Unique ID : 168529355329971750348860949494653333388 (0x7EC992BCD4A4E454FFF1B083560D2F8C) Complete name : First.Love.2019.1080p.BluRay.DTS.x264-NSBC.mkv Format : Matroska Format version : Version 4 File size : 11.7 GiB Duration : 1 h 48 min Overall bit rate : 15.5 Mb/s Movie name : First.Love.2019.1080p.BluRay.DTS.x264-NSBC Encoded by : ZeC | NSBC Encoded date : UTC 2020-02-16 09:50:19 Writing application : mkvmerge v29.0.0 ('Like It Or Not') 64-bit Writing library : libebml v1.3.6 + libmatroska v1.4.9 Copyright : NSBC Comment : ZeC | NSBC WEBSITE : NSBC.to Video ID : 1 Format : AVC Format/Info : Advanced Video Codec Format profile : High@L4.1 Format settings : CABAC / 9 Ref Frames Format settings, CABAC : Yes Format settings, Reference frames : 9 frames Codec ID : V_MPEG4/ISO/AVC Duration : 1 h 48 min Bit rate : 12.5 Mb/s Width : 1 920 pixels Height : 800 pixels Display aspect ratio : 2.40:1 Frame rate mode : Constant Frame rate : 23.976 (24000/1001) FPS Color space : YUV Chroma subsampling : 4:2:0 Bit depth : 8 bits Scan type : Progressive Bits/(Pixel*Frame) : 0.339 Stream size : 9.45 GiB (80%) Title : [NSBC] Writing library : x264 core 158 r2984 3759fcb Encoding settings : cabac=1 / ref=9 / deblock=1:-3:-3 / analyse=0x3:0x113 / me=hex / subme=7 / psy=1 / psy_rd=1.00:0.15 / mixed_ref=1 / me_range=16 / chroma_me=1 / trellis=1 / 8x8dct=1 / cqm=0 / deadzone=21,11 / fast_pskip=1 / chroma_qp_offset=-3 / threads=3 / lookahead_threads=1 / sliced_threads=0 / nr=0 / decimate=1 / interlaced=0 / bluray_compat=0 / constrained_intra=0 / bframes=9 / b_pyramid=2 / b_adapt=2 / b_bias=0 / direct=1 / weightb=1 / open_gop=0 / weightp=2 / keyint=250 / keyint_min=23 / scenecut=40 / intra_refresh=0 / rc_lookahead=40 / rc=2pass / mbtree=1 / bitrate=12500 / ratetol=1.0 / qcomp=0.60 / qpmin=0 / qpmax=69 / qpstep=4 / cplxblur=20.0 / qblur=0.5 / ip_ratio=1.40 / aq=3:0.80 Default : Yes Forced : No Color range : Limited Color primaries : BT.709 Transfer characteristics : BT.709 Matrix coefficients : BT.709 Audio #1 ID : 2 Format : DTS Format/Info : Digital Theater Systems Codec ID : A_DTS Duration : 1 h 48 min Bit rate mode : Constant Bit rate : 1 509 kb/s Channel(s) : 6 channels Channel layout : C L R Ls Rs LFE Sampling rate : 48.0 kHz Frame rate : 93.750 FPS (512 SPF) Bit depth : 24 bits Compression mode : Lossy Stream size : 1.14 GiB (10%) Title : [NSBC] Language : Japanese Default : Yes Forced : No Audio #2 ID : 3 Format : DTS Format/Info : Digital Theater Systems Codec ID : A_DTS Duration : 1 h 48 min Bit rate mode : Constant Bit rate : 1 509 kb/s Channel(s) : 6 channels Channel layout : C L R Ls Rs LFE Sampling rate : 48.0 kHz Frame rate : 93.750 FPS (512 SPF) Bit depth : 24 bits Compression mode : Lossy Stream size : 1.14 GiB (10%) Title : [NSBC] Language : English Default : No Forced : No Text ID : 4 Format : PGS Muxing mode : zlib Codec ID : S_HDMV/PGS Codec ID/Info : Picture based subtitle format used on BDs/HD-DVDs Duration : 1 h 46 min Bit rate : 21.6 kb/s Count of elements : 2051 Stream size : 16.4 MiB (0%) Title : [NSBC] Language : English Default : Yes Forced : No Menu 00:00:00.000 : ja:Chapter 01 00:08:14.452 : ja:Chapter 02 00:18:13.926 : ja:Chapter 03 00:28:22.117 : ja:Chapter 04 00:34:19.891 : ja:Chapter 05 00:45:19.300 : ja:Chapter 06 00:54:37.483 : ja:Chapter 07 01:01:53.335 : ja:Chapter 08 01:13:17.059 : ja:Chapter 09 01:24:44.288 : ja:Chapter 10 01:37:23.504 : ja:Chapter 11 01:44:42.318 : ja:Chapter 12 ```

File list

  • First.Love.2019.1080p.BluRay.DTS.x264-NSBC.mkv (11.7 GiB)
Nice. Thank you~