Kano - Rye [AMV][RoARene317]

Category:
Date:
2020-02-15 15:31 UTC
Submitter:
Seeders:
2
Information:
No information.
Leechers:
1
File size:
1.5 GiB
Completed:
18
Info hash:
a3408b057b19ae47ec7cdbaf7ad997dcb9ea281c
Original : [mpeg @ 000001de76848d80] stream 1 : no PTS found at end of file, duration not set Guessed Channel Layout for Input Stream #0.2 : stereo Input #0, mpeg, from 'vts_01_1.vob': Duration: 00:00:01.97, start: 0.280633, bitrate: 4322191 kb/s Stream #0:0[0x1bf]: Data: dvd_nav_packet Stream #0:1[0x1e0]: Video: mpeg2video (Main), yuv420p(tv, progressive), 720x480 [SAR 32:27 DAR 16:9], 8328 kb/s, 29.97 fps, 59.94 tbr, 90k tbn, 59.94 tbc Stream #0:2[0xa0]: Audio: pcm_dvd, 48000 Hz, stereo, s16, 1536 kb/s MKV ver : Metadata: creation_time : 2020-02-15T11:46:44.000000Z ENCODER : Lavf58.20.100 Duration: 00:04:28.35, start: 0.000000, bitrate: 16455 kb/s Stream #0:0: Video: hevc (Main), yuv420p(tv, smpte170m/smpte170m/bt709), 720x480 [SAR 32:27 DAR 16:9], 30 fps, 30 tbr, 1k tbn, 30 tbc (default) Metadata: DURATION : 00:04:28.354000000 Stream #0:1(jpn): Audio: flac, 48000 Hz, stereo, s32 (24 bit) (default) Metadata: title : Stereo DURATION : 00:04:28.128000000 I'm here to make sure as lossless as possible. Second Upload :) Thanks for 100 downloads, Please seed since I'm only use my lap and my cellphone to seed. Arigato Gozaimashita. ---Note--- When seed < leech , it means demands higher than supply, please chill and take your time.

File list

  • Ripped
    • 02.Hope.mkv (526.4 MiB)
    • 03.「Q] & 「A」.mkv (543.9 MiB)
    • 01.  春に落ちて.mkv (432.9 MiB)