[NSBC] Children of the Dark / Yami no kodomo-tachi / 闇の子供たち 2008 [WEBDL] [1080p] [V2]

Category:
Date:
2020-02-13 11:25 UTC
Submitter:
Seeders:
2
Information:
TlNCQy50bw==
Leechers:
3
File size:
5.5 GiB
Completed:
272
Info hash:
9ce7cdec341e070699236052230d579a806660c6
![](http://img.topddl.net/images/2020/02/12/148499_01.jpg "") ![](http://img.topddl.net/images/2020/02/13/Children.of.the.Dark.2008.1080p.WEB-DL.DDP2.0.H.264-NSBC.mkv.jpg "") ``` General Unique ID : 300267362196680601099919643835272427509 (0xE1E563F269AC15CBD9B62575429677F5) Complete name : Children.of.the.Dark.2008.1080p.WEB-DL.DDP2.0.H.264-NSBC.mkv Format : Matroska Format version : Version 4 File size : 5.49 GiB Duration : 2 h 17 min Overall bit rate : 5 712 kb/s Movie name : Children.of.the.Dark.2008.1080p.WEB-DL.DDP2.0.H.264-NSBC Encoded by : NoNe | NSBC Encoded date : UTC 2020-02-13 11:19:18 Writing application : mkvmerge v29.0.0 ('Like It Or Not') 64-bit Writing library : libebml v1.3.6 + libmatroska v1.4.9 Copyright : NSBC Comment : NoNe | NSBC NOTICE ME : SENPAI WEBSITE : NSBC.to Video ID : 1 Format : AVC Format/Info : Advanced Video Codec Format profile : High@L4 Format settings : CABAC / 3 Ref Frames Format settings, CABAC : Yes Format settings, Reference frames : 3 frames Format settings, GOP : M=1, N=30 Codec ID : V_MPEG4/ISO/AVC Duration : 2 h 17 min Bit rate : 4 941 kb/s Width : 1 920 pixels Height : 1 080 pixels Display aspect ratio : 16:9 Frame rate mode : Constant Frame rate : 29.970 (30000/1001) FPS Color space : YUV Chroma subsampling : 4:2:0 Bit depth : 8 bits Scan type : Progressive Bits/(Pixel*Frame) : 0.080 Stream size : 4.75 GiB (87%) Title : [NSBC] Default : Yes Forced : No Color range : Limited Color primaries : BT.709 Transfer characteristics : BT.709 Matrix coefficients : BT.709 Audio #1 ID : 2 Format : E-AC-3 Format/Info : Enhanced AC-3 Commercial name : Dolby Digital Plus Codec ID : A_EAC3 Duration : 2 h 17 min Bit rate mode : Constant Bit rate : 640 kb/s Channel(s) : 2 channels Channel layout : L R Sampling rate : 48.0 kHz Frame rate : 31.250 FPS (1536 SPF) Compression mode : Lossy Stream size : 630 MiB (11%) Title : [NSBC] Language : Japanese Service kind : Complete Main Default : Yes Forced : No Audio #2 ID : 3 Format : AAC LC Format/Info : Advanced Audio Codec Low Complexity Codec ID : A_AAC-2 Duration : 2 h 17 min Bit rate : 128 kb/s Channel(s) : 2 channels Channel layout : L R Sampling rate : 48.0 kHz Frame rate : 46.875 FPS (1024 SPF) Compression mode : Lossy Stream size : 126 MiB (2%) Title : [NSBC] Language : Japanese Default : No Forced : No ```

File list

  • Children.of.the.Dark.2008.1080p.WEB-DL.DDP2.0.H.264-NSBC.mkv (5.5 GiB)