[NSBC] DASADA E05 [HDTV] [1080p]

Category:
Date:
2020-02-13 07:11 UTC
Submitter:
Seeders:
5
Information:
TlNCQy50bw==
Leechers:
4
File size:
2.2 GiB
Completed:
433
Info hash:
9f79fdfa7784d7c8d7e157677b82651a7aa69a4a
![](http://img.topddl.net/images/2020/01/16/mainv-pc.jpg "") ![](http://img.topddl.net/images/2020/02/13/DASADA.S01E05.1080p.HDTV.AAC.x264-NSBC.mkv.jpg "") ``` General Unique ID : 49116276647888063055250709048403455440 (0x24F373675214044B97D5DC31ABEC6DD0) Complete name : DASADA.S01E05.1080p.HDTV.AAC.x264-NSBC.mkv Format : Matroska Format version : Version 4 File size : 2.17 GiB Duration : 22 min 59 s Overall bit rate : 13.5 Mb/s Movie name : DASADA.S01E05.1080p.HDTV.AAC.x264-NSBC Encoded by : NoNe | NSBC Encoded date : UTC 2020-02-13 07:06:05 Writing application : mkvmerge v29.0.0 ('Like It Or Not') 64-bit Writing library : libebml v1.3.6 + libmatroska v1.4.9 Copyright : NSBC Comment : NoNe | NSBC DATE_RECORDED : 2020 NOTICE ME : SENPAI WEBSITE : NSBC.to Video ID : 1 Format : AVC Format/Info : Advanced Video Codec Format profile : High@L4.1 Format settings : CABAC / 9 Ref Frames Format settings, CABAC : Yes Format settings, Reference frames : 9 frames Codec ID : V_MPEG4/ISO/AVC Duration : 22 min 59 s Bit rate : 13.3 Mb/s Width : 1 920 pixels Height : 1 080 pixels Display aspect ratio : 16:9 Frame rate mode : Constant Frame rate : 29.970 (30000/1001) FPS Color space : YUV Chroma subsampling : 4:2:0 Bit depth : 8 bits Scan type : Progressive Bits/(Pixel*Frame) : 0.214 Stream size : 2.13 GiB (98%) Title : [NSBC] Writing library : x264 core 142 r2431+42 c69a006 tMod [8-bit@all X86_64] Encoding settings : cabac=1 / ref=9 / deblock=1:-1:-1 / analyse=0x3:0x113 / me=hex / subme=7 / psy=1 / fade_compensate=0.20 / psy_rd=1.00:0.15 / mixed_ref=1 / me_range=16 / chroma_me=1 / trellis=1 / 8x8dct=1 / cqm=0 / deadzone=21,11 / fast_pskip=0 / chroma_qp_offset=-3 / threads=3 / lookahead_threads=1 / sliced_threads=0 / nr=0 / decimate=1 / interlaced=0 / bluray_compat=0 / constrained_intra=0 / fgo=5 / bframes=3 / b_pyramid=2 / b_adapt=1 / b_bias=0 / direct=1 / weightb=1 / open_gop=0 / weightp=2 / keyint=250 / keyint_min=25 / scenecut=40 / intra_refresh=0 / rc_lookahead=40 / rc=crf / mbtree=1 / crf=18.0000 / qcomp=0.60 / qpmin=0:0:0 / qpmax=69:69:69 / qpstep=4 / ip_ratio=1.40 / aq=3:1.00 / aq-sensitivity=10.00 / aq-factor=1.00:1.00:1.00 / aq2=0 / aq3=2:[0.30:0.30]:[0.30:0.30]:[0.30:0.30]:[0.30:0.30] / aq3-sensitivity=10.00 / aq3-factor=[1.00:1.00]:[1.00:1.00]:[1.00:1.00] / aq3-boundary=192:64:24 Default : Yes Forced : No Color range : Limited Color primaries : BT.709 Transfer characteristics : BT.709 Matrix coefficients : BT.709 Audio ID : 2 Format : AAC LC Format/Info : Advanced Audio Codec Low Complexity Codec ID : A_AAC-2 Duration : 22 min 59 s Bit rate : 253 kb/s Channel(s) : 2 channels Channel layout : L R Sampling rate : 48.0 kHz Frame rate : 46.875 FPS (1024 SPF) Compression mode : Lossy Stream size : 41.6 MiB (2%) Title : [NSBC] Language : Japanese Default : Yes Forced : No ```

File list

  • DASADA.S01E05.1080p.HDTV.AAC.x264-NSBC.mkv (2.2 GiB)