Made.in.Abyss.S01.Complete.[BD.1080p.x265.HEVC.10bit][SUB ENG/ES]

Category:
Date:
2020-02-12 17:06 UTC
Submitter:
Seeders:
0
Information:
No information.
Leechers:
0
File size:
2.8 GiB
Completed:
1118
Info hash:
ec897da3843f149d0631a451a91d8265d01e4c3d
# General Format : Matroska Format version : Version 4 File size : 189 MiB Duration : 23 min 41 s Overall bit rate : 1 113 kb/s Encoded date : UTC 2020-01-21 15:42:44 Writing application : mkvmerge v41.0.0 ('Smarra') 64-bit Writing library : libebml v1.3.9 + libmatroska v1.5.2 Attachments : CronosPro-SemiboldIt.ttf / playtime.ttf / saru(sRB).TTF / CronosPro-Semibold.ttf Writing frontend : StaxRip v1.6.1.2 # Video ID : 3 Format : HEVC Format/Info : High Efficiency Video Coding Format profile : Main 10@L4@Main Codec ID : V_MPEGH/ISO/HEVC Duration : 23 min 41 s Bit rate : 996 kb/s Width : 1 920 pixels Height : 1 080 pixels Display aspect ratio : 16:9 Frame rate mode : Constant Frame rate : 23.976 (24000/1001) FPS Color space : YUV Chroma subsampling : 4:2:0 Bit depth : 10 bits # Audio ID : 4 Format : AAC LC Format/Info : Advanced Audio Codec Low Complexity Codec ID : A_AAC-2 Duration : 23 min 41 s Bit rate : 112 kb/s Channel(s) : 2 channels Channel layout : L R Sampling rate : 48.0 kHz Frame rate : 46.875 FPS (1024 SPF) Compression mode : Lossy Delay relative to video : 21 ms Stream size : 19.0 MiB (10%) Language : Japanese Default : No Forced : No # Text #1 ID : 1 Format : ASS Codec ID : S_TEXT/ASS Codec ID/Info : Advanced Sub Station Alpha Duration : 23 min 36 s Bit rate : 102 b/s Count of elements : 377 Compression mode : Lossless Stream size : 17.8 KiB (0%) Title : EspaƱol Language : Spanish Default : Yes Forced : Yes # Text #2 ID : 2 Format : ASS Codec ID : S_TEXT/ASS Codec ID/Info : Advanced Sub Station Alpha Duration : 23 min 36 s Bit rate : 122 b/s Count of elements : 353 Compression mode : Lossless Stream size : 21.1 KiB (0%) Title : English Language : English Default : No Forced : No # Menu 00:00:00.000 : :Prologue 00:08:17.956 : :Part A 00:13:28.975 : :Part B 00:22:00.027 : :ED 00:23:29.950 : :Preview Credits: bonkai77, erai-raws.info

File list

  • Made in Abyss [BD-1080p] [x265] [HEVC] [AAC] [10bit]
    • Made.in.Abyss.Episode.01.[BD.1080p.x265.HEVC.10bit].mkv (188.7 MiB)
    • Made.in.Abyss.Episode.02.[BD.1080p.x265.HEVC.10bit].mkv (219.8 MiB)
    • Made.in.Abyss.Episode.03.[BD.1080p..x265.HEVC.10bit].mkv (193.0 MiB)
    • Made.in.Abyss.Episode.04.[BD.1080p.x265.HEVC.10bit].mkv (264.4 MiB)
    • Made.in.Abyss.Episode.05.[BD.1080p.x265.HEVC.10bit].mkv (234.8 MiB)
    • Made.in.Abyss.Episode.06.[BD.1080p.x265.HEVC.10bit].mkv (183.0 MiB)
    • Made.in.Abyss.Episode.07.[BD.1080p.x265.HEVC.10bit].mkv (184.5 MiB)
    • Made.in.Abyss.Episode.08.[BD.1080p.x265.HEVC.10bit].mkv (193.0 MiB)
    • Made.in.Abyss.Episode.09.[BD.1080p.x265.HEVC.10bit].mkv (236.2 MiB)
    • Made.in.Abyss.Episode.10.[BD.1080p.x265.HEVC.10bit].mkv (199.5 MiB)
    • Made.in.Abyss.Episode.11.[BD.1080p.x265.HEVC.10bit].mkv (209.0 MiB)
    • Made.in.Abyss.Episode.12.[BD.1080p.x265.HEVC.10bit].mkv (239.7 MiB)
    • Made.in.Abyss.Episode.13.[BD.1080p.x265.HEVC.10bit].mkv (371.2 MiB)