[NSBC] Nogizaka Cinemas: Story of 46 E04 [HDTV] [1080p]

Category:
Date:
2020-02-12 05:41 UTC
Submitter:
Seeders:
7
Information:
TlNCQy50bw==
Leechers:
2
File size:
1.7 GiB
Completed:
334
Info hash:
860916d4f6ae87842f05c9ca2bfaf0723bf24156
![](http://img.topddl.net/images/2020/01/22/mv.jpg "") ![](http://img.topddl.net/images/2020/02/12/Nogizaka.Cinemas.STORY.of.46.S01E04.1080p.HDTV.AAC.x264-NSBC.mkv.jpg "") ``` General Unique ID : 250814499303865958001481247104952720929 (0xBCB11D8F6A18C6C75F6582E64F085E21) Complete name : Nogizaka.Cinemas.STORY.of.46.S01E04.1080p.HDTV.AAC.x264-NSBC.mkv Format : Matroska Format version : Version 4 File size : 1.66 GiB Duration : 23 min 45 s Overall bit rate : 10.0 Mb/s Movie name : Nogizaka.Cinemas.STORY.of.46.S01E04.1080p.HDTV.AAC.x264-NSBC Encoded by : MoMo | NSBC Encoded date : UTC 2020-02-12 05:08:31 Writing application : mkvmerge v29.0.0 ('Like It Or Not') 64-bit Writing library : libebml v1.3.6 + libmatroska v1.4.9 Copyright : NSBC Comment : MoMo | NSBC WEBSITE : NSBC.to Video ID : 1 Format : AVC Format/Info : Advanced Video Codec Format profile : High@L4.1 Format settings : CABAC / 9 Ref Frames Format settings, CABAC : Yes Format settings, Reference frames : 9 frames Codec ID : V_MPEG4/ISO/AVC Duration : 23 min 44 s Bit rate : 9 812 kb/s Width : 1 920 pixels Height : 1 080 pixels Display aspect ratio : 16:9 Frame rate mode : Constant Frame rate : 29.970 (30000/1001) FPS Color space : YUV Chroma subsampling : 4:2:0 Bit depth : 8 bits Scan type : Progressive Bits/(Pixel*Frame) : 0.158 Stream size : 1.63 GiB (98%) Title : [NSBC] Writing library : x264 core 142 r2431+42 c69a006 tMod [8-bit@all X86_64] Encoding settings : cabac=1 / ref=9 / deblock=1:-1:-1 / analyse=0x3:0x113 / me=hex / subme=7 / psy=1 / fade_compensate=0.20 / psy_rd=1.00:0.15 / mixed_ref=1 / me_range=16 / chroma_me=1 / trellis=1 / 8x8dct=1 / cqm=0 / deadzone=21,11 / fast_pskip=0 / chroma_qp_offset=-3 / threads=3 / lookahead_threads=1 / sliced_threads=0 / nr=0 / decimate=1 / interlaced=0 / bluray_compat=0 / constrained_intra=0 / fgo=5 / bframes=3 / b_pyramid=2 / b_adapt=1 / b_bias=0 / direct=1 / weightb=1 / open_gop=0 / weightp=2 / keyint=250 / keyint_min=25 / scenecut=40 / intra_refresh=0 / rc_lookahead=40 / rc=crf / mbtree=1 / crf=18.0000 / qcomp=0.60 / qpmin=0:0:0 / qpmax=69:69:69 / qpstep=4 / ip_ratio=1.40 / aq=3:1.00 / aq-sensitivity=10.00 / aq-factor=1.00:1.00:1.00 / aq2=0 / aq3=2:[0.30:0.30]:[0.30:0.30]:[0.30:0.30]:[0.30:0.30] / aq3-sensitivity=10.00 / aq3-factor=[1.00:1.00]:[1.00:1.00]:[1.00:1.00] / aq3-boundary=192:64:24 Default : Yes Forced : No Color range : Limited Color primaries : BT.709 Transfer characteristics : BT.709 Matrix coefficients : BT.709 Audio ID : 2 Format : AAC LC Format/Info : Advanced Audio Codec Low Complexity Codec ID : A_AAC-2 Duration : 23 min 45 s Bit rate : 192 kb/s Channel(s) : 2 channels Channel layout : L R Sampling rate : 48.0 kHz Frame rate : 46.875 FPS (1024 SPF) Compression mode : Lossy Stream size : 32.0 MiB (2%) Title : [NSBC] Language : Japanese Default : Yes Forced : No ```

File list

  • Nogizaka.Cinemas.STORY.of.46.S01E04.1080p.HDTV.AAC.x264-NSBC.mkv (1.7 GiB)