[NSBC] Children of the Dark / Yami no kodomo-tachi / 闇の子供たち 2008 [WEBDL] [1080p]

Category:
Date:
2020-02-12 05:41 UTC
Submitter:
Seeders:
7
Information:
TlNCQy50bw==
Leechers:
4
File size:
2.8 GiB
Completed:
401
Info hash:
94cc04e8087690a0f641b0b4be550c7b5d0e3bf0
![](http://img.topddl.net/images/2020/02/12/148499_01.jpg "") ![](http://img.topddl.net/images/2020/02/12/Children-of-the-Dark-2008-1080p-WEB-DL-AAC-H.264-NSBC.mkv.jpg "") ``` General Unique ID : 122708157991790307001002845885952738926 (0x5C50BB497666CDEEA5928655448CC66E) Complete name : Children of the Dark 2008 1080p WEB-DL AAC H.264-NSBC.mkv Format : Matroska Format version : Version 4 File size : 2.78 GiB Duration : 2 h 17 min Overall bit rate : 2 891 kb/s Movie name : Children of the Dark 2008 1080p WEB-DL AAC H.264-NSBC Encoded by : Slogs | NSBC Encoded date : UTC 2020-02-11 23:28:05 Writing application : mkvmerge v29.0.0 ('Like It Or Not') 64-bit Writing library : libebml v1.3.6 + libmatroska v1.4.9 Copyright : NSBC Comment : Slogs | NSBC WEBSITE : NSBC.to Video ID : 1 Format : AVC Format/Info : Advanced Video Codec Format profile : High@L4 Format settings : CABAC / 3 Ref Frames Format settings, CABAC : Yes Format settings, Reference frames : 3 frames Format settings, GOP : M=1, N=30 Codec ID : V_MPEG4/ISO/AVC Duration : 2 h 17 min Bit rate : 2 761 kb/s Width : 1 920 pixels Height : 1 080 pixels Display aspect ratio : 16:9 Frame rate mode : Variable Frame rate : 16.926 FPS Original frame rate : 29.970 (30000/1001) FPS Color space : YUV Chroma subsampling : 4:2:0 Bit depth : 8 bits Scan type : Progressive Bits/(Pixel*Frame) : 0.079 Stream size : 2.65 GiB (96%) Title : [NSBC] Default : Yes Forced : No Color range : Limited Color primaries : BT.709 Transfer characteristics : BT.709 Matrix coefficients : BT.709 Audio ID : 2 Format : AAC LC Format/Info : Advanced Audio Codec Low Complexity Codec ID : A_AAC-2 Duration : 2 h 17 min Bit rate : 128 kb/s Channel(s) : 2 channels Channel layout : L R Sampling rate : 48.0 kHz Frame rate : 46.875 FPS (1024 SPF) Compression mode : Lossy Stream size : 126 MiB (4%) Title : [NSBC] Language : Japanese Default : Yes Forced : No ```

File list

  • Children of the Dark 2008 1080p WEB-DL AAC H.264-NSBC.mkv (2.8 GiB)
bad coding https://i.hizliresim.com/17PMzj.png https://i.hizliresim.com/LGP19o.png https://i.hizliresim.com/ryLZPm.png

NOSoba (uploader)

User
i mean its untouch webdl, we didnt even encode it.. so we cant do anything about that

NOSoba (uploader)

User
but thanks to you, i personally will re-rip this movie :D we 100% didnt check the file that upload in here XD